<?xml version="1.0" standalone="no"?>
<!DOCTYPE svg PUBLIC "-//W3C//DTD SVG 1.1//EN" "http://www.w3.org/Graphics/SVG/1.1/DTD/svg11.dtd" >
<svg xmlns="http://www.w3.org/2000/svg" xmlns:xlink="http://www.w3.org/1999/xlink" version="1.1">
<metadata>
Created by FontForge 20141024 at Sat Apr 11 23:13:59 2015
 By System Administrator
Copyright (c) 2012 by Juraj CHRASTINA. All rights reserved.
</metadata>
<defs>
<font id="AmbassadorPlusSans-Light" horiz-adv-x="533" >
  <font-face 
    font-family="Ambassador Plus Sans"
    font-weight="300"
    font-stretch="normal"
    units-per-em="1000"
    panose-1="2 0 0 0 0 0 0 0 0 0"
    ascent="750"
    descent="-250"
    x-height="604"
    cap-height="604"
    bbox="-18 -159 972 778"
    underline-thickness="50"
    underline-position="-50"
    unicode-range="U+0020-2212"
  />
<missing-glyph horiz-adv-x="451" 
d="M225 0v72h24v-72h-24zM68 438l-25 1c1 29 7 54 17 75c9 20 23 40 38 56c15 14 37 29 54 36c21 8 46 14 70 14c26 0 47 -5 68 -14c22 -9 41 -22 57 -38c16 -17 30 -35 38 -55c9 -23 13 -46 13 -70c0 -16 -4 -36 -9 -50c-4 -12 -14 -28 -24 -42c-9 -13 -19 -24 -30 -36
l-38 -39c-8 -8 -25 -28 -30 -37c-6 -13 -12 -25 -14 -35c-3 -10 -4 -19 -4 -27v-34h-24v34c0 11 0 22 3 33c2 7 6 18 13 30c5 8 21 35 27 42c6 6 11 13 17 19c10 10 22 19 32 31c10 11 21 21 30 34c7 11 14 22 19 36c5 13 9 27 9 41c0 19 -4 41 -13 60c-8 16 -20 36 -32 49
c-11 11 -34 24 -49 31c-17 8 -39 12 -59 12c-21 0 -41 -3 -60 -11c-18 -7 -36 -19 -48 -31c-15 -15 -26 -31 -32 -48c-9 -21 -13 -43 -14 -67z" />
    <glyph glyph-name="AE" unicode="AE" horiz-adv-x="710" 
d="M347 0v198h-213c-33 -60 -79 -138 -112 -198h-27c108 187 238 417 346 604h316v-24h-286v-253h264v-24h-264v-278h289v-25h-313zM149 221h198c0 121 -2 222 -2 343h-2c-67 -116 -127 -226 -194 -343z" />
    <glyph glyph-name="ae" unicode="ae" horiz-adv-x="710" 
d="M347 0v198h-213c-33 -60 -79 -138 -112 -198h-27c108 187 238 417 346 604h316v-24h-286v-253h264v-24h-264v-278h289v-25h-313zM149 221h198c0 121 -2 222 -2 343h-2c-67 -116 -127 -226 -194 -343z" />
    <glyph glyph-name="ellipsis" unicode="&#x2e;&#x2e;&#x2e;" horiz-adv-x="574" 
d="M78 0v72h25v-72h-25zM276 0v72h24v-72h-24zM472 0v72h24v-72h-24z" />
    <glyph glyph-name="OE" unicode="OE" horiz-adv-x="1024" 
d="M946 327v-24h-280v-278h306v-25h-331v209h-2c-3 -10 -7 -20 -10 -29c-15 -36 -37 -72 -64 -100c-28 -29 -62 -54 -98 -69c-34 -15 -78 -26 -119 -26c-42 0 -83 11 -118 26s-70 41 -97 68c-28 28 -51 64 -66 101c-14 35 -24 81 -24 123c0 43 8 85 24 123
c14 35 38 71 67 100c27 28 61 54 96 69c36 15 75 25 118 25c44 0 83 -10 119 -25c36 -16 69 -40 98 -69c28 -28 49 -63 64 -100c3 -9 7 -19 10 -28h2v206h327v-24h-302v-253h280zM547 511c-25 26 -56 46 -90 61s-70 23 -109 23c-38 0 -74 -8 -109 -23
c-34 -15 -65 -36 -89 -61c-26 -27 -46 -58 -61 -95c-14 -34 -21 -74 -21 -113c0 -41 8 -79 22 -114c15 -36 36 -67 61 -94c24 -26 54 -49 88 -63c33 -14 73 -22 109 -22c37 0 76 9 109 22c34 14 63 36 90 63c24 25 45 57 60 94c15 35 22 73 22 114c0 39 -7 79 -22 113
c-15 36 -35 69 -60 95z" />
    <glyph glyph-name="oe" unicode="oe" horiz-adv-x="1024" 
d="M946 327v-24h-280v-278h306v-25h-331v209h-2c-3 -10 -7 -20 -10 -29c-15 -36 -37 -72 -64 -100c-28 -29 -62 -54 -98 -69c-34 -15 -78 -26 -119 -26c-42 0 -83 11 -118 26s-70 41 -97 68c-28 28 -51 64 -66 101c-14 35 -24 81 -24 123c0 43 8 85 24 123
c14 35 38 71 67 100c27 28 61 54 96 69c36 15 75 25 118 25c44 0 83 -10 119 -25c36 -16 69 -40 98 -69c28 -28 49 -63 64 -100c3 -9 7 -19 10 -28h2v206h327v-24h-302v-253h280zM547 511c-25 26 -56 46 -90 61s-70 23 -109 23c-38 0 -74 -8 -109 -23
c-34 -15 -65 -36 -89 -61c-26 -27 -46 -58 -61 -95c-14 -34 -21 -74 -21 -113c0 -41 8 -79 22 -114c15 -36 36 -67 61 -94c24 -26 54 -49 88 -63c33 -14 73 -22 109 -22c37 0 76 9 109 22c34 14 63 36 90 63c24 25 45 57 60 94c15 35 22 73 22 114c0 39 -7 79 -22 113
c-15 36 -35 69 -60 95z" />
    <glyph glyph-name=".notdef" horiz-adv-x="451" 
d="M225 0v72h24v-72h-24zM68 438l-25 1c1 29 7 54 17 75c9 20 23 40 38 56c15 14 37 29 54 36c21 8 46 14 70 14c26 0 47 -5 68 -14c22 -9 41 -22 57 -38c16 -17 30 -35 38 -55c9 -23 13 -46 13 -70c0 -16 -4 -36 -9 -50c-4 -12 -14 -28 -24 -42c-9 -13 -19 -24 -30 -36
l-38 -39c-8 -8 -25 -28 -30 -37c-6 -13 -12 -25 -14 -35c-3 -10 -4 -19 -4 -27v-34h-24v34c0 11 0 22 3 33c2 7 6 18 13 30c5 8 21 35 27 42c6 6 11 13 17 19c10 10 22 19 32 31c10 11 21 21 30 34c7 11 14 22 19 36c5 13 9 27 9 41c0 19 -4 41 -13 60c-8 16 -20 36 -32 49
c-11 11 -34 24 -49 31c-17 8 -39 12 -59 12c-21 0 -41 -3 -60 -11c-18 -7 -36 -19 -48 -31c-15 -15 -26 -31 -32 -48c-9 -21 -13 -43 -14 -67z" />
    <glyph glyph-name=".null" horiz-adv-x="0" 
 />
    <glyph glyph-name="CR" horiz-adv-x="297" 
 />
    <glyph glyph-name="space" unicode=" " horiz-adv-x="283" 
 />
    <glyph glyph-name="uni0025" unicode="%" horiz-adv-x="637" 
d="M489 604h28l-373 -604h-28zM41 472c0 76 60 138 133 138c74 0 134 -62 134 -138c0 -75 -60 -137 -134 -137c-73 0 -133 62 -133 137zM66 472c0 -61 49 -112 108 -112c60 0 109 51 109 112c0 62 -49 113 -109 113c-59 0 -108 -51 -108 -113zM325 130c0 76 60 138 133 138
c74 0 134 -62 134 -138c0 -75 -60 -137 -134 -137c-73 0 -133 62 -133 137zM350 130c0 -61 49 -112 108 -112c60 0 109 51 109 112c0 62 -49 113 -109 113c-59 0 -108 -51 -108 -113z" />
    <glyph glyph-name="ampersand" unicode="&#x26;" horiz-adv-x="554" 
d="M498 0l-76 83c-12 -14 -25 -27 -38 -38c-17 -14 -33 -24 -49 -31c-20 -9 -36 -16 -54 -21c-20 -5 -40 -8 -60 -8c-27 0 -50 4 -72 12s-40 19 -57 34c-17 16 -29 32 -37 52c-8 19 -14 42 -14 67c0 29 7 52 15 72c15 35 47 64 78 84c15 10 32 18 57 30c-4 5 -11 11 -14 16
c-13 18 -29 34 -40 52c-17 27 -31 55 -31 88c0 21 4 37 11 53c6 14 17 28 31 39c15 12 31 20 48 26c19 6 39 10 59 10c21 0 40 -3 55 -9c14 -5 30 -14 41 -25c11 -12 20 -25 26 -40c6 -16 9 -33 9 -52c0 -25 -7 -47 -17 -65c-10 -20 -24 -35 -40 -47
c-17 -13 -32 -24 -50 -32c-16 -8 -30 -16 -46 -23l189 -210c12 18 20 32 26 43c17 28 30 79 36 113c2 15 3 39 4 65h25c1 -30 -3 -60 -9 -89c-8 -37 -21 -72 -36 -100c-10 -20 -21 -35 -30 -48l88 -101h-28zM325 34c15 7 28 17 45 30c13 11 26 23 36 36l-197 218
c-20 -8 -37 -16 -51 -25c-31 -19 -65 -44 -80 -81c-9 -19 -13 -39 -13 -62c0 -20 3 -39 11 -58c6 -14 19 -29 31 -42c13 -13 30 -22 51 -29s41 -11 63 -11c36 0 70 8 104 24zM159 411c14 -21 36 -44 56 -65c34 14 69 31 99 54c14 12 28 26 35 40c8 14 12 31 12 54
c0 15 -2 28 -7 42c-5 12 -12 23 -21 32c-9 8 -22 16 -32 20c-14 5 -29 7 -46 7s-34 -2 -50 -7c-17 -6 -30 -14 -41 -22c-10 -8 -19 -20 -25 -32s-9 -25 -9 -42c0 -27 13 -57 29 -81z" />
    <glyph glyph-name="quotesingle" unicode="'" horiz-adv-x="166" 
d="M71 395v209h24v-209h-24z" />
    <glyph glyph-name="parenleft" unicode="(" horiz-adv-x="220" 
d="M216 -21h-36c-18 15 -31 33 -45 51c-20 26 -38 53 -51 82c-11 26 -23 61 -30 91c-8 32 -11 65 -11 101c0 33 4 68 11 100c8 33 19 67 32 95c12 27 31 57 50 81c13 17 26 32 42 46h38c-26 -20 -46 -40 -61 -60c-18 -22 -33 -49 -46 -77c-13 -30 -24 -59 -31 -90
s-10 -64 -10 -95s3 -67 9 -96s17 -58 29 -86c13 -29 31 -55 48 -78c15 -20 36 -42 62 -65z" />
    <glyph glyph-name="parenright" unicode=")" horiz-adv-x="220" 
d="M38 -21h-35c24 23 47 45 63 65c17 22 35 52 47 78c12 27 21 59 28 86c7 31 10 64 10 96c0 31 -4 64 -11 95c-6 30 -14 61 -29 90c-13 26 -31 56 -47 77c-15 20 -36 40 -61 60h37c16 -14 29 -29 42 -46c19 -25 38 -52 51 -81c14 -31 24 -61 31 -95c7 -32 11 -67 11 -100
c0 -36 -3 -69 -11 -101c-7 -30 -19 -65 -30 -91c-12 -28 -31 -57 -51 -82c-13 -16 -26 -35 -45 -51z" />
    <glyph glyph-name="asterisk" unicode="*" horiz-adv-x="349" 
d="M161 604h23v-102c29 16 62 36 90 52l11 -22l-90 -51c30 -17 62 -34 92 -51l-12 -22l-91 52v-104h-23v104c-29 -16 -61 -36 -89 -52l-13 22l90 51l-89 52l11 20l90 -51v102z" />
    <glyph glyph-name="plus" unicode="+" horiz-adv-x="513" 
d="M244 427h25v-202h195v-23h-195v-202h-25v202h-195v23h195v202z" />
    <glyph glyph-name="comma" unicode="," horiz-adv-x="224" 
d="M112 83h26l-55 -173h-26z" />
    <glyph glyph-name="hyphen" unicode="-" horiz-adv-x="289" 
d="M223 225v-23h-157v23h157z" />
    <glyph glyph-name="period" unicode="." horiz-adv-x="180" 
d="M78 0v72h24v-72h-24z" />
    <glyph glyph-name="slash" unicode="/" horiz-adv-x="373" 
d="M300 604h27l-253 -604h-27z" />
    <glyph glyph-name="zero" unicode="0" horiz-adv-x="496" 
d="M248 -15c-35 0 -69 13 -94 30c-26 17 -47 43 -61 76c-13 30 -24 63 -32 99c-7 36 -10 72 -10 113c0 39 3 77 10 112c8 36 19 70 32 100c14 34 34 59 61 77c25 17 57 28 94 28c38 0 68 -11 94 -28c27 -17 48 -43 61 -77c13 -30 24 -64 32 -100c7 -35 10 -73 10 -112
c0 -41 -3 -77 -10 -113c-8 -36 -19 -69 -32 -99c-13 -34 -35 -58 -61 -76s-58 -30 -94 -30zM248 10c30 0 60 10 81 23s39 39 53 68c14 30 21 62 28 94c8 35 10 70 10 108c0 37 -2 73 -10 107c-7 34 -14 65 -28 96c-13 29 -32 52 -53 66c-21 15 -48 23 -81 23
c-32 0 -58 -8 -81 -23c-21 -14 -39 -37 -52 -66c-15 -31 -24 -62 -30 -96s-9 -70 -9 -107c0 -38 3 -73 9 -108c6 -34 16 -67 29 -94c14 -28 30 -54 53 -68c21 -13 51 -23 81 -23z" />
    <glyph glyph-name="one" unicode="1" horiz-adv-x="243" 
d="M4 604h155v-604h-24v580h-131v24z" />
    <glyph glyph-name="two" unicode="2" horiz-adv-x="455" 
d="M38 0v28l246 253l68 75c20 22 31 55 31 82c0 21 -3 41 -12 62c-8 17 -19 34 -33 49c-14 14 -31 25 -49 33c-21 9 -40 13 -62 13c-23 0 -45 -6 -65 -14c-18 -7 -36 -21 -47 -34c-15 -17 -24 -40 -32 -64c-7 -24 -10 -51 -10 -80h-24c1 59 11 112 49 159c13 17 34 33 54 42
c21 9 48 16 75 16c26 0 50 -6 71 -15c22 -10 41 -22 57 -38c17 -17 28 -37 38 -58c9 -21 14 -46 14 -71c0 -33 -14 -65 -34 -93c-25 -34 -46 -53 -70 -78l-232 -241v-1h338v-25h-371z" />
    <glyph glyph-name="three" unicode="3" horiz-adv-x="457" 
d="M397 244c9 -21 15 -47 15 -72c0 -26 -6 -52 -15 -73c-9 -20 -24 -43 -40 -60c-16 -15 -38 -30 -60 -39c-23 -10 -47 -15 -72 -15c-28 0 -51 5 -74 15c-21 9 -44 24 -59 39c-17 17 -31 40 -40 60c-9 22 -15 49 -15 73v39h24v-39c0 -21 5 -43 13 -63c7 -19 19 -36 33 -51
c16 -16 34 -26 54 -34s41 -14 64 -14c22 0 43 6 63 14s37 19 52 34s27 32 35 51c8 20 12 41 12 63s-4 43 -12 62c-8 20 -20 37 -35 51c-14 14 -34 28 -52 36c-19 9 -42 12 -63 12h-49v25h53c16 0 34 3 46 9c13 6 30 17 40 26c9 9 20 24 26 38s9 30 9 45c0 16 -3 32 -9 46
c-7 15 -17 28 -27 39c-9 10 -26 19 -39 25c-12 5 -30 9 -46 9s-31 -2 -47 -9c-12 -6 -29 -16 -38 -26c-9 -9 -19 -24 -26 -38c-7 -13 -10 -26 -10 -39v-24h-23c-4 81 37 113 43 118c12 11 28 23 46 31c15 7 36 12 55 12c21 0 40 -4 56 -12c16 -7 31 -18 46 -31
c14 -13 24 -27 32 -45c6 -17 11 -36 11 -56s-4 -36 -11 -54c-8 -18 -17 -33 -32 -46c-6 -5 -14 -13 -26 -20c-8 -4 -8 -4 -15 -8v-3c11 -4 21 -9 29 -14c16 -10 29 -19 37 -28c17 -19 32 -37 41 -59z" />
    <glyph glyph-name="four" unicode="4" horiz-adv-x="442" 
d="M322 0h-24v145h-280v26l272 433h32v-435h97v-24h-97v-145zM46 169h252v400h-2z" />
    <glyph glyph-name="five" unicode="5" horiz-adv-x="479" 
d="M405 604v-24h-260c-16 -84 -30 -153 -46 -238h1c4 3 7 6 12 10c16 13 54 32 73 37c19 6 36 6 52 6c30 0 55 -5 79 -15c23 -10 46 -26 66 -46c17 -19 32 -39 42 -63c10 -25 16 -52 16 -81s-6 -55 -16 -80c-10 -24 -25 -47 -42 -65c-18 -19 -44 -33 -66 -43
c-23 -10 -51 -17 -79 -17c-27 0 -55 6 -79 17c-22 10 -47 26 -65 43c-17 18 -34 43 -43 65c-10 25 -16 54 -16 87l25 -2c0 -26 5 -52 14 -75c8 -20 21 -40 37 -56c18 -18 37 -31 58 -39c20 -8 45 -15 69 -15c25 0 47 6 69 15c23 8 41 21 57 38c16 16 28 34 38 57
c9 23 15 46 15 70s-6 48 -15 71c-9 21 -21 40 -38 57c-17 16 -35 30 -57 38c-22 9 -44 15 -69 15c-15 0 -30 -3 -45 -6c-30 -8 -51 -18 -76 -41c-13 -12 -21 -24 -29 -36l-21 7l60 309h279z" />
    <glyph glyph-name="six" unicode="6" horiz-adv-x="462" 
d="M299 604l-161 -237l1 -1c11 6 23 11 34 15c18 7 37 10 59 10c29 0 55 -5 78 -16s45 -24 64 -43c18 -19 33 -44 43 -65c10 -23 16 -53 16 -78c0 -30 -5 -56 -16 -80c-10 -23 -24 -46 -43 -65s-41 -33 -64 -43s-48 -16 -78 -16c-29 0 -54 5 -78 16c-24 10 -45 25 -64 43
c-17 17 -32 43 -42 65c-11 23 -16 51 -16 80c0 22 3 42 10 61c6 17 14 37 26 54l202 300h29zM232 10c26 0 48 7 68 15c22 9 41 21 57 37s28 34 37 56c10 24 15 46 15 71c0 22 -5 46 -15 69c-8 20 -21 38 -37 55c-17 18 -35 29 -57 38c-20 9 -42 15 -68 15
c-22 0 -47 -6 -68 -15c-19 -8 -40 -21 -56 -38c-16 -16 -28 -35 -37 -55c-11 -23 -14 -47 -14 -69c0 -26 3 -47 14 -71c9 -22 21 -40 37 -56c14 -15 38 -29 56 -37c21 -9 46 -15 68 -15z" />
    <glyph glyph-name="seven" unicode="7" horiz-adv-x="396" 
d="M22 580v24h373v-24l-312 -580h-25l310 578v2h-346z" />
    <glyph glyph-name="eight" unicode="8" horiz-adv-x="463" 
d="M317 560l-1 1c-9 10 -26 19 -38 25c-13 5 -31 9 -46 9c-17 0 -32 -3 -48 -9c-14 -6 -26 -15 -37 -26c-11 -12 -20 -24 -27 -38s-10 -30 -10 -46s3 -30 10 -45s16 -28 26 -38s24 -20 38 -26c16 -7 31 -9 48 -9c15 0 33 3 46 9c12 6 29 17 39 26c11 10 20 24 26 38
c7 15 9 29 9 45s-3 32 -9 46c-7 14 -15 28 -26 38zM308 357c-5 -3 -11 -6 -15 -9v-2c11 -4 23 -8 32 -14c18 -11 30 -20 38 -29c17 -19 32 -37 41 -59c9 -21 15 -47 15 -72c0 -26 -6 -52 -15 -73c-9 -20 -24 -43 -40 -60c-16 -15 -38 -30 -60 -39c-23 -10 -47 -15 -72 -15
c-28 0 -51 5 -74 15c-21 9 -44 24 -59 39c-17 17 -31 40 -40 60c-9 22 -15 49 -15 73c0 27 5 50 15 72c9 21 22 40 39 59c9 9 23 18 41 29c9 6 20 11 30 15v2c-5 3 -10 5 -15 8c-12 7 -20 14 -24 19c-14 16 -26 29 -33 46s-9 34 -9 54s2 39 9 56s17 31 32 45
c12 12 29 23 47 31c15 7 36 12 56 12c19 0 40 -5 55 -12c16 -8 35 -20 46 -31c13 -13 24 -27 32 -45c7 -17 11 -36 11 -56s-4 -36 -11 -54c-8 -18 -18 -32 -32 -46c-6 -6 -13 -12 -25 -19zM232 10c22 0 43 6 63 14s37 19 52 34s27 32 35 51c8 20 12 41 12 63s-4 43 -12 62
c-8 20 -20 37 -35 51c-14 14 -34 28 -52 36c-19 9 -42 12 -63 12c-23 0 -45 -3 -64 -12c-19 -8 -39 -22 -53 -36c-15 -14 -26 -31 -34 -51c-7 -19 -13 -41 -13 -62s5 -43 13 -63c7 -19 19 -36 33 -51c16 -16 34 -26 54 -34s40 -14 64 -14z" />
    <glyph glyph-name="nine" unicode="9" horiz-adv-x="462" 
d="M192 0h-28l160 237l-1 1c-11 -6 -23 -10 -34 -14c-18 -6 -38 -10 -60 -10c-28 0 -54 4 -78 15c-24 10 -45 25 -64 43c-18 18 -32 44 -42 66s-16 51 -16 78s5 56 16 79c10 22 26 47 42 65c18 19 40 33 64 43c25 10 50 16 78 16c30 0 55 -6 78 -16c24 -10 47 -24 65 -43
c16 -18 32 -43 42 -65c11 -23 16 -52 16 -79c0 -22 -2 -43 -10 -65c-5 -15 -15 -33 -27 -50c-66 -97 -135 -203 -201 -301zM229 594c-23 0 -46 -5 -68 -14c-20 -8 -39 -21 -56 -38s-27 -33 -34 -49c-11 -26 -17 -51 -17 -77c0 -25 5 -51 17 -77c7 -15 17 -31 34 -48
s36 -29 56 -38c22 -10 45 -15 68 -15c28 0 51 7 76 18c16 7 32 18 49 35c16 16 29 37 37 56c8 20 15 46 15 69s-7 49 -15 69c-9 20 -23 43 -37 57s-37 29 -57 38c-19 8 -43 14 -68 14z" />
    <glyph glyph-name="colon" unicode=":" horiz-adv-x="166" 
d="M71 0v72h24v-72h-24zM71 354v73h24v-73h-24z" />
    <glyph glyph-name="semicolon" unicode=";" horiz-adv-x="244" 
d="M124 83h25l-55 -173h-25zM122 354v73h23v-73h-23z" />
    <glyph glyph-name="less" unicode="&#x3c;" horiz-adv-x="525" 
d="M452 434v-26l-376 -193v-2c123 -62 254 -128 376 -190v-26l-408 207v23z" />
    <glyph glyph-name="equal" unicode="=" horiz-adv-x="550" 
d="M71 279v24h408v-24h-408zM71 123v25h408v-25h-408z" />
    <glyph glyph-name="greater" unicode="&#x3e;" horiz-adv-x="525" 
d="M451 217l-377 190v27l407 -207v-23l-407 -207v26l377 192v2z" />
    <glyph glyph-name="question" unicode="?" horiz-adv-x="451" 
d="M225 0v72h24v-72h-24zM68 438l-25 1c1 29 7 54 17 75c9 20 23 40 38 56c15 14 37 29 54 36c21 8 46 14 70 14c26 0 47 -5 68 -14c22 -9 41 -22 57 -38c16 -17 30 -35 38 -55c9 -23 13 -46 13 -70c0 -16 -4 -36 -9 -50c-4 -12 -14 -28 -24 -42c-9 -13 -19 -24 -30 -36
l-38 -39c-8 -8 -25 -28 -30 -37c-6 -13 -12 -25 -14 -35c-3 -10 -4 -19 -4 -27v-34h-24v34c0 11 0 22 3 33c2 7 6 18 13 30c5 8 21 35 27 42c6 6 11 13 17 19c10 10 22 19 32 31c10 11 21 21 30 34c7 11 14 22 19 36c5 13 9 27 9 41c0 19 -4 41 -13 60c-8 16 -20 36 -32 49
c-11 11 -34 24 -49 31c-17 8 -39 12 -59 12c-21 0 -41 -3 -60 -11c-18 -7 -36 -19 -48 -31c-15 -15 -26 -31 -32 -48c-9 -21 -13 -43 -14 -67z" />
    <glyph glyph-name="at" unicode="@" horiz-adv-x="705" 
d="M397 158c-4 6 -7 13 -7 20h-2c-12 -12 -25 -25 -44 -34c-16 -8 -35 -14 -58 -14c-34 0 -61 24 -76 55c-11 23 -16 48 -16 76c0 27 6 57 17 81c9 22 22 44 37 60c16 18 31 33 48 44c18 11 36 19 54 21s40 -1 54 -7c12 -6 23 -11 29 -17c11 -12 18 -27 22 -39h2
c6 17 12 38 18 53l24 -5l-78 -220c-4 -11 -8 -22 -9 -32c-1 -11 -1 -20 4 -31c7 -14 26 -16 41 -16c47 0 92 30 122 69c31 39 52 90 52 133c0 34 -9 68 -24 101c-11 24 -29 52 -52 72c-22 20 -49 38 -80 50s-65 19 -103 19s-81 -9 -115 -23c-36 -15 -70 -36 -97 -62
c-26 -26 -48 -59 -63 -93c-16 -35 -23 -73 -23 -112c0 -41 7 -81 21 -116c15 -38 35 -70 60 -98c24 -26 53 -48 87 -63c32 -14 70 -23 110 -23c26 0 52 4 79 11s53 15 75 27c21 12 39 25 61 45c19 18 35 36 49 60l19 -12c-15 -29 -32 -49 -52 -67c-18 -17 -41 -32 -67 -46
c-25 -13 -54 -24 -80 -31c-28 -7 -55 -11 -84 -11c-42 0 -83 9 -119 26c-34 15 -71 42 -95 69c-28 30 -50 65 -66 103c-15 38 -23 81 -23 126c0 44 9 84 25 122c15 36 41 70 71 99s64 53 103 69s81 25 124 25c41 0 80 -8 112 -20c32 -13 63 -33 86 -55c30 -27 48 -57 63 -89
c14 -31 21 -66 21 -103c0 -48 -21 -104 -57 -148c-36 -45 -86 -77 -140 -77c-21 0 -47 8 -60 28zM398 243l31 84c5 13 8 27 8 37c0 22 -5 42 -19 57c-6 6 -15 12 -23 16c-12 7 -26 9 -41 6s-30 -9 -44 -17c-16 -10 -31 -23 -43 -37c-13 -16 -24 -36 -33 -57
c-11 -23 -16 -48 -16 -71s3 -45 14 -67c10 -21 29 -41 54 -41c19 0 36 6 50 14c17 10 32 23 44 39c7 9 13 24 18 37z" />
    <glyph glyph-name="A" unicode="A" 
d="M530 0h-26l-82 198h-315c-24 -60 -58 -138 -84 -198h-28l257 604h28zM116 221h296c-50 120 -95 229 -146 349h-2c-50 -118 -98 -231 -148 -349z" />
    <glyph glyph-name="B" unicode="B" horiz-adv-x="479" 
d="M84 0v604h176c20 0 41 -4 57 -11c20 -9 36 -19 49 -32c14 -14 23 -31 31 -48c8 -19 12 -39 12 -60c0 -19 -4 -41 -12 -59c-6 -14 -19 -33 -32 -47c-6 -6 -13 -13 -22 -18c-7 -3 -14 -8 -20 -11v-2c8 -3 15 -8 25 -13c15 -8 26 -18 33 -25c15 -15 26 -31 34 -51
c9 -20 12 -42 12 -64c0 -21 -4 -45 -12 -63c-9 -19 -21 -39 -34 -53c-15 -15 -34 -26 -53 -34c-18 -7 -40 -13 -62 -13h-182zM266 303h-157v-278h157c19 0 37 4 53 10c18 7 32 17 44 30s22 27 29 44s11 36 11 54c0 19 -4 38 -11 54s-15 32 -29 45c-13 12 -28 22 -44 29
c-16 8 -34 12 -53 12zM260 580h-151v-253h151c15 0 36 3 49 10c13 6 29 16 40 26c12 11 20 26 27 41c7 16 9 32 9 49c0 18 -2 34 -9 50c-7 14 -15 29 -26 40c-10 11 -27 21 -41 27s-34 10 -49 10z" />
    <glyph glyph-name="C" unicode="C" horiz-adv-x="658" 
d="M69 303c0 -41 7 -79 21 -114c15 -36 36 -67 61 -94c24 -26 54 -49 89 -63c33 -14 73 -22 109 -22s76 9 109 22c34 14 63 36 90 63c15 15 29 36 43 58h27c-16 -30 -36 -56 -53 -73c-28 -28 -62 -54 -97 -69c-34 -15 -78 -26 -119 -26c-42 0 -84 11 -118 26
c-35 15 -70 41 -97 68c-28 28 -52 64 -66 101c-14 35 -24 81 -24 123c0 43 9 85 24 123c14 35 38 71 67 100c27 28 61 54 96 69s75 25 118 25c44 0 83 -9 119 -25c35 -15 68 -40 97 -70c8 -8 40 -47 51 -75h-23c-14 22 -29 44 -45 61c-25 26 -56 46 -90 61s-71 23 -109 23
s-74 -8 -109 -23s-65 -36 -89 -61c-26 -27 -46 -58 -61 -95c-14 -34 -21 -74 -21 -113z" />
    <glyph glyph-name="D" unicode="D" horiz-adv-x="601" 
d="M84 1v603h206c43 0 80 -8 111 -22c30 -13 60 -35 81 -59c23 -26 40 -62 52 -98c13 -38 17 -79 17 -122c0 -44 -8 -89 -20 -124c-13 -36 -34 -70 -58 -96c-25 -27 -55 -48 -89 -61c-35 -13 -74 -22 -119 -22zM109 579v-554h156c41 0 77 6 109 19c31 13 60 32 82 54
c23 23 40 54 53 90c12 34 18 73 18 115c0 39 -6 80 -16 115c-8 31 -28 68 -47 91c-17 20 -44 39 -72 51c-29 12 -63 19 -102 19h-181z" />
    <glyph glyph-name="E" unicode="E" horiz-adv-x="468" 
d="M84 0v604h328v-24h-304v-253h284v-24h-284v-278h308v-25h-332z" />
    <glyph glyph-name="F" unicode="F" horiz-adv-x="417" 
d="M84 0v604h298v-24h-274v-263h242v-24h-242v-293h-24z" />
    <glyph glyph-name="G" unicode="G" horiz-adv-x="691" 
d="M322 252v24h329c-3 -37 -11 -71 -22 -96c-15 -36 -37 -72 -64 -100c-28 -29 -62 -54 -98 -69c-34 -15 -78 -26 -119 -26c-42 0 -83 11 -118 26s-70 41 -97 68c-28 28 -51 64 -66 101c-14 35 -24 81 -24 123c0 43 8 85 24 123c14 35 38 71 67 100c27 28 61 54 96 69
c36 15 75 25 118 25c44 0 83 -10 119 -25c36 -16 69 -40 98 -70c8 -9 49 -58 55 -83h-23c-14 23 -28 48 -49 68c-26 26 -56 47 -91 62c-34 15 -70 23 -109 23c-38 0 -74 -8 -109 -23c-34 -15 -65 -36 -89 -61c-26 -27 -46 -58 -61 -95c-14 -34 -21 -74 -21 -113
c0 -41 7 -79 21 -114c15 -36 36 -67 61 -94c24 -26 55 -49 89 -63c33 -14 73 -22 109 -22c37 0 76 9 109 22c34 14 63 36 90 63c23 24 45 58 60 94c8 20 15 43 18 63h-303z" />
    <glyph glyph-name="H" unicode="H" horiz-adv-x="582" 
d="M109 604v-277h364v277h24v-604h-24v303h-364v-303h-25v604h25z" />
    <glyph glyph-name="I" unicode="I" horiz-adv-x="193" 
d="M109 604v-604h-25v604h25z" />
    <glyph glyph-name="J" unicode="J" horiz-adv-x="407" 
d="M305 604h24v-455c0 -24 -4 -45 -11 -64c-8 -20 -19 -39 -33 -53c-14 -15 -31 -25 -50 -34s-39 -13 -61 -13c-21 0 -42 5 -60 13s-36 21 -49 34c-15 15 -27 34 -34 53c-8 19 -11 41 -11 68h24c0 -22 3 -42 10 -59c6 -16 16 -31 29 -44c13 -14 27 -23 41 -29
c15 -7 31 -11 50 -11s34 5 51 12c15 6 29 15 41 28c12 12 21 28 28 44c7 17 11 35 11 55v455z" />
    <glyph glyph-name="K" unicode="K" horiz-adv-x="457" 
d="M84 0v604h24v-356l295 356h32l-220 -264c75 -111 157 -230 233 -340h-30l-219 322l-91 -111v-211h-24z" />
    <glyph glyph-name="L" unicode="L" horiz-adv-x="388" 
d="M365 0h-281v604h24v-579h257v-25z" />
    <glyph glyph-name="M" unicode="M" horiz-adv-x="784" 
d="M108 0h-24v604h32l275 -568h3c90 188 183 381 273 568h33l-1 -604h-23c0 184 -1 379 -1 564h-2c-91 -187 -181 -378 -272 -564h-19l-273 563h-1v-563z" />
    <glyph glyph-name="N" unicode="N" horiz-adv-x="628" 
d="M109 0h-25v604h31l402 -568h2v568h24v-604h-30l-403 569h-1v-569z" />
    <glyph glyph-name="O" unicode="O" horiz-adv-x="698" 
d="M346 620c44 0 83 -10 119 -25c36 -16 69 -40 98 -69c28 -28 49 -63 64 -100c16 -38 24 -80 24 -123c0 -42 -10 -88 -24 -123c-15 -36 -37 -72 -64 -100c-28 -29 -62 -54 -98 -69c-34 -15 -78 -26 -119 -26c-42 0 -83 11 -118 26s-70 41 -97 68c-28 28 -51 64 -66 101
c-14 35 -24 81 -24 123c0 43 8 85 24 123c14 35 38 71 67 100c27 28 61 54 96 69c36 15 75 25 118 25zM545 511c-25 26 -56 46 -90 61s-70 23 -109 23c-38 0 -74 -8 -109 -23c-34 -15 -65 -36 -89 -61c-26 -27 -46 -58 -61 -95c-14 -34 -21 -74 -21 -113
c0 -41 8 -79 22 -114c15 -36 36 -67 61 -94c24 -26 54 -49 88 -63c33 -14 73 -22 109 -22c37 0 76 9 109 22c34 14 63 36 90 63c24 25 45 57 60 94c15 35 22 73 22 114c0 39 -7 79 -22 113c-15 36 -35 69 -60 95z" />
    <glyph glyph-name="P" unicode="P" horiz-adv-x="461" 
d="M84 0v604h181c24 0 47 -4 67 -12c20 -9 38 -19 55 -35c17 -17 31 -36 39 -54c9 -20 12 -42 12 -66c0 -22 -3 -44 -12 -64c-8 -19 -22 -38 -39 -54s-35 -27 -55 -36c-20 -8 -43 -12 -67 -12h-156v-271h-25zM109 580v-285h156c20 0 40 3 59 11c18 8 33 18 46 31
c12 12 25 30 33 46c7 15 12 37 12 54c0 19 -3 38 -11 56c-7 16 -19 30 -33 45c-12 12 -29 23 -48 31c-19 7 -38 11 -58 11h-156z" />
    <glyph glyph-name="Q" unicode="Q" horiz-adv-x="702" 
d="M347 620c44 0 83 -10 119 -25c36 -16 69 -40 98 -69c28 -28 50 -63 65 -100c16 -38 23 -80 23 -123c0 -42 -9 -88 -23 -123s-39 -73 -65 -100c-17 -19 -39 -36 -57 -49c7 -3 27 -17 30 -18c14 -7 30 -18 46 -24c12 -5 25 -9 34 -12c10 -3 20 -5 38 -7l-2 -25
c-35 8 -41 8 -43 9c-12 4 -23 8 -35 13c-7 3 -18 8 -27 13c-8 5 -17 9 -26 15c-6 4 -10 5 -13 8c-7 7 -17 11 -25 17c-10 -7 -16 -8 -18 -9c-34 -15 -78 -26 -119 -26c-42 0 -83 11 -118 26s-70 41 -97 68c-28 28 -51 64 -66 101c-14 35 -24 81 -24 123c0 43 8 85 24 123
c14 35 38 71 67 100c27 28 61 54 96 69c36 15 75 25 118 25zM347 10c42 0 77 12 115 23c-11 10 -30 19 -46 24c-14 7 -32 10 -48 14c-14 3 -28 5 -42 6c-33 3 -66 -1 -99 -11c-10 -3 -21 -6 -30 -10c12 -9 27 -18 41 -24c33 -14 73 -22 109 -22zM149 95c8 -8 17 -16 26 -24
c16 8 33 15 46 19c16 4 38 9 57 10c15 1 35 2 49 1c15 -1 32 -4 46 -7c16 -3 33 -8 46 -13c3 -1 13 -6 16 -7c7 -3 14 -6 32 -15c0 0 13 -9 18 -12c22 13 45 30 61 48c24 25 45 58 60 94c15 35 23 73 23 114c0 39 -8 79 -23 113c-15 36 -35 70 -60 95c-25 26 -56 46 -90 61
s-70 23 -109 23c-38 0 -74 -8 -109 -23c-34 -15 -65 -36 -89 -61c-26 -27 -46 -58 -61 -95c-14 -34 -21 -74 -21 -113c0 -41 7 -79 21 -114c15 -36 35 -68 61 -94z" />
    <glyph glyph-name="R" unicode="R" horiz-adv-x="532" 
d="M84 604h209c24 0 47 -4 66 -12c21 -8 40 -19 56 -36s29 -36 37 -53c11 -22 15 -44 15 -66s-5 -44 -14 -64c-9 -19 -21 -39 -38 -54c-16 -15 -34 -27 -56 -36c-16 -6 -30 -11 -48 -12c63 -89 130 -182 193 -271h-30l-192 271h-173v-271h-25v604zM109 580v-285h184
c19 0 38 5 57 12c17 7 33 16 48 30c15 13 23 26 29 40c8 19 15 38 15 60c0 21 -6 42 -16 63c-6 13 -13 26 -27 38c-14 13 -32 23 -49 31c-17 7 -39 11 -57 11h-184z" />
    <glyph glyph-name="S" unicode="S" horiz-adv-x="489" 
d="M81 457c0 -42 18 -68 49 -88c32 -20 80 -34 129 -44c51 -11 101 -27 135 -52c32 -24 53 -62 53 -115c0 -48 -23 -92 -59 -123c-39 -33 -89 -50 -144 -50s-105 18 -142 50s-60 76 -60 128h25c0 -43 20 -82 50 -108c34 -29 78 -45 127 -45s94 16 128 45c30 26 51 62 51 103
c0 43 -18 77 -44 97c-28 21 -78 35 -125 46c-50 12 -102 25 -137 48c-36 24 -60 58 -60 108c0 48 19 89 52 117c36 30 83 46 138 46c50 0 97 -16 131 -46c31 -29 51 -70 50 -121h-25c1 44 -13 78 -41 102c-28 25 -70 40 -115 40c-49 0 -92 -14 -123 -40
c-27 -23 -43 -58 -43 -98z" />
    <glyph glyph-name="T" unicode="T" horiz-adv-x="419" 
d="M25 580v24h369v-24h-176v-580h-24v580h-169z" />
    <glyph glyph-name="U" unicode="U" horiz-adv-x="536" 
d="M435 604h23v-419c0 -29 -5 -55 -14 -79c-10 -24 -25 -45 -41 -63c-16 -17 -39 -33 -61 -43s-49 -16 -74 -16c-28 0 -52 5 -75 16c-23 10 -43 24 -61 42c-17 18 -31 40 -40 64s-15 50 -15 79v419h24v-419c0 -25 4 -48 13 -70c8 -18 23 -42 36 -55c16 -17 33 -29 53 -37
c20 -9 41 -15 65 -15c23 0 45 5 65 15c19 8 37 20 52 36c14 15 28 36 36 56c9 23 14 45 14 70v419z" />
    <glyph glyph-name="V" unicode="V" horiz-adv-x="529" 
d="M502 604h26l-247 -604h-28l-254 604h27l241 -570h2z" />
    <glyph glyph-name="W" unicode="W" horiz-adv-x="748" 
d="M22 604h26c51 -186 105 -378 158 -564h1c52 187 106 378 158 564h20l158 -564h2c50 180 105 384 154 564h27c-53 -190 -115 -413 -167 -604h-31l-152 550h-2c-51 -183 -104 -367 -154 -550h-30z" />
    <glyph glyph-name="X" unicode="X" horiz-adv-x="459" 
d="M41 0h-31l209 313l-197 291h29l183 -274h2l176 274h30l-193 -296l199 -308h-29l-187 290h-2z" />
    <glyph glyph-name="Y" unicode="Y" horiz-adv-x="427" 
d="M225 0h-24v256l-201 348h29l184 -321h1l184 321h29l-202 -348v-256z" />
    <glyph glyph-name="Z" unicode="Z" horiz-adv-x="441" 
d="M18 0v28l364 550v2h-343v24h373v-27l-364 -551v-1h367l1 -25h-398z" />
    <glyph glyph-name="bracketleft" unicode="[" horiz-adv-x="215" 
d="M83 -21v647h97v-25h-73v-597h73v-25h-97z" />
    <glyph glyph-name="backslash" unicode="\" horiz-adv-x="373" 
d="M299 0l-253 604h27l253 -604h-27z" />
    <glyph glyph-name="bracketright" unicode="]" horiz-adv-x="216" 
d="M35 626h98v-647h-98v25h73v597h-73v25z" />
    <glyph glyph-name="underscore" unicode="_" horiz-adv-x="415" 
d="M0 -70h415v-24h-415v24z" />
    <glyph glyph-name="braceleft" unicode="{" horiz-adv-x="210" 
d="M109 179v-112c0 -26 6 -63 37 -63h27v-25h-27c-57 0 -61 55 -61 88v117c0 25 -4 54 -13 75c-6 15 -14 24 -30 28v31c16 6 20 11 27 26c14 30 16 49 16 78v115c0 14 0 27 2 37c4 21 11 34 30 45c8 5 18 7 29 7h27v-25h-27c-6 0 -14 -1 -20 -5c-10 -7 -13 -15 -15 -28
c-1 -9 -2 -19 -2 -31v-115c0 -24 -3 -62 -15 -86c-5 -10 -12 -25 -23 -32v-3c12 -12 18 -21 23 -31c12 -24 15 -66 15 -91z" />
    <glyph glyph-name="bar" unicode="|" horiz-adv-x="175" 
d="M99 -60h-25v725h25v-725z" />
    <glyph glyph-name="braceright" unicode="}" horiz-adv-x="210" 
d="M101 67v112c0 25 3 67 15 91c5 10 11 19 23 31v3c-11 7 -18 22 -23 32c-12 24 -15 62 -15 86v115c0 12 -1 22 -2 31c-2 13 -5 21 -15 28c-6 4 -14 5 -20 5h-27v25h27c11 0 21 -2 29 -7c19 -11 26 -24 30 -45c2 -10 2 -23 2 -37v-115c0 -29 2 -48 16 -78
c7 -15 11 -20 27 -26v-31c-16 -4 -24 -13 -30 -28c-9 -21 -13 -50 -13 -75v-117c0 -33 -4 -88 -61 -88h-27v25h27c31 0 37 37 37 63z" />
    <glyph glyph-name="asciitilde" unicode="~" horiz-adv-x="508" 
d="M157 250c36 -1 68 -17 100 -33c27 -14 55 -27 85 -27c16 0 31 5 41 13c9 7 15 14 23 23c3 3 9 11 12 14l19 -13c-13 -17 -25 -33 -39 -43c-16 -11 -35 -19 -56 -19c-34 0 -64 16 -95 32c-28 15 -58 28 -91 28c-13 0 -28 -5 -39 -12s-22 -23 -32 -37l-21 11
c11 18 24 34 38 45c16 12 33 19 55 18z" />
    <glyph glyph-name="a" unicode="a" 
d="M530 0h-26l-82 198h-315c-24 -60 -58 -138 -84 -198h-28l257 604h28zM116 221h296c-50 120 -95 229 -146 349h-2c-50 -118 -98 -231 -148 -349z" />
    <glyph glyph-name="b" unicode="b" horiz-adv-x="479" 
d="M84 0v604h176c20 0 41 -4 57 -11c20 -9 36 -19 49 -32c14 -14 23 -31 31 -48c8 -19 12 -39 12 -60c0 -19 -4 -41 -12 -59c-6 -14 -19 -33 -32 -47c-6 -6 -13 -13 -22 -18c-7 -3 -14 -8 -20 -11v-2c8 -3 15 -8 25 -13c15 -8 26 -18 33 -25c15 -15 26 -31 34 -51
c9 -20 12 -42 12 -64c0 -21 -4 -45 -12 -63c-9 -19 -21 -39 -34 -53c-15 -15 -34 -26 -53 -34c-18 -7 -40 -13 -62 -13h-182zM266 303h-157v-278h157c19 0 37 4 53 10c18 7 32 17 44 30s22 27 29 44s11 36 11 54c0 19 -4 38 -11 54s-15 32 -29 45c-13 12 -28 22 -44 29
c-16 8 -34 12 -53 12zM260 580h-151v-253h151c15 0 36 3 49 10c13 6 29 16 40 26c12 11 20 26 27 41c7 16 9 32 9 49c0 18 -2 34 -9 50c-7 14 -15 29 -26 40c-10 11 -27 21 -41 27s-34 10 -49 10z" />
    <glyph glyph-name="c" unicode="c" horiz-adv-x="658" 
d="M69 303c0 -41 7 -79 21 -114c15 -36 36 -67 61 -94c24 -26 54 -49 89 -63c33 -14 73 -22 109 -22s76 9 109 22c34 14 63 36 90 63c15 15 29 36 43 58h27c-16 -30 -36 -56 -53 -73c-28 -28 -62 -54 -97 -69c-34 -15 -78 -26 -119 -26c-42 0 -84 11 -118 26
c-35 15 -70 41 -97 68c-28 28 -52 64 -66 101c-14 35 -24 81 -24 123c0 43 9 85 24 123c14 35 38 71 67 100c27 28 61 54 96 69s75 25 118 25c44 0 83 -9 119 -25c35 -15 68 -40 97 -70c8 -8 40 -47 51 -75h-23c-14 22 -29 44 -45 61c-25 26 -56 46 -90 61s-71 23 -109 23
s-74 -8 -109 -23s-65 -36 -89 -61c-26 -27 -46 -58 -61 -95c-14 -34 -21 -74 -21 -113z" />
    <glyph glyph-name="d" unicode="d" horiz-adv-x="601" 
d="M84 1v603h206c43 0 80 -8 111 -22c30 -13 60 -35 81 -59c23 -26 40 -62 52 -98c13 -38 17 -79 17 -122c0 -44 -8 -89 -20 -124c-13 -36 -34 -70 -58 -96c-25 -27 -55 -48 -89 -61c-35 -13 -74 -22 -119 -22zM109 579v-554h156c41 0 77 6 109 19c31 13 60 32 82 54
c23 23 40 54 53 90c12 34 18 73 18 115c0 39 -6 80 -16 115c-8 31 -28 68 -47 91c-17 20 -44 39 -72 51c-29 12 -63 19 -102 19h-181z" />
    <glyph glyph-name="e" unicode="e" horiz-adv-x="468" 
d="M84 0v604h328v-24h-304v-253h284v-24h-284v-278h308v-25h-332z" />
    <glyph glyph-name="f" unicode="f" horiz-adv-x="417" 
d="M84 0v604h298v-24h-274v-263h242v-24h-242v-293h-24z" />
    <glyph glyph-name="g" unicode="g" horiz-adv-x="691" 
d="M322 252v24h329c-3 -37 -11 -71 -22 -96c-15 -36 -37 -72 -64 -100c-28 -29 -62 -54 -98 -69c-34 -15 -78 -26 -119 -26c-42 0 -83 11 -118 26s-70 41 -97 68c-28 28 -51 64 -66 101c-14 35 -24 81 -24 123c0 43 8 85 24 123c14 35 38 71 67 100c27 28 61 54 96 69
c36 15 75 25 118 25c44 0 83 -10 119 -25c36 -16 69 -40 98 -70c8 -9 49 -58 55 -83h-23c-14 23 -28 48 -49 68c-26 26 -56 47 -91 62c-34 15 -70 23 -109 23c-38 0 -74 -8 -109 -23c-34 -15 -65 -36 -89 -61c-26 -27 -46 -58 -61 -95c-14 -34 -21 -74 -21 -113
c0 -41 7 -79 21 -114c15 -36 36 -67 61 -94c24 -26 55 -49 89 -63c33 -14 73 -22 109 -22c37 0 76 9 109 22c34 14 63 36 90 63c23 24 45 58 60 94c8 20 15 43 18 63h-303z" />
    <glyph glyph-name="h" unicode="h" horiz-adv-x="582" 
d="M109 604v-277h364v277h24v-604h-24v303h-364v-303h-25v604h25z" />
    <glyph glyph-name="i" unicode="i" horiz-adv-x="193" 
d="M109 604v-604h-25v604h25z" />
    <glyph glyph-name="j" unicode="j" horiz-adv-x="407" 
d="M305 604h24v-455c0 -24 -4 -45 -11 -64c-8 -20 -19 -39 -33 -53c-14 -15 -31 -25 -50 -34s-39 -13 -61 -13c-21 0 -42 5 -60 13s-36 21 -49 34c-15 15 -27 34 -34 53c-8 19 -11 41 -11 68h24c0 -22 3 -42 10 -59c6 -16 16 -31 29 -44c13 -14 27 -23 41 -29
c15 -7 31 -11 50 -11s34 5 51 12c15 6 29 15 41 28c12 12 21 28 28 44c7 17 11 35 11 55v455z" />
    <glyph glyph-name="k" unicode="k" horiz-adv-x="457" 
d="M84 0v604h24v-356l295 356h32l-220 -264c75 -111 157 -230 233 -340h-30l-219 322l-91 -111v-211h-24z" />
    <glyph glyph-name="l" unicode="l" horiz-adv-x="388" 
d="M365 0h-281v604h24v-579h257v-25z" />
    <glyph glyph-name="m" unicode="m" horiz-adv-x="784" 
d="M108 0h-24v604h32l275 -568h3c90 188 183 381 273 568h33l-1 -604h-23c0 184 -1 379 -1 564h-2c-91 -187 -181 -378 -272 -564h-19l-273 563h-1v-563z" />
    <glyph glyph-name="n" unicode="n" horiz-adv-x="628" 
d="M109 0h-25v604h31l402 -568h2v568h24v-604h-30l-403 569h-1v-569z" />
    <glyph glyph-name="o" unicode="o" horiz-adv-x="698" 
d="M346 620c44 0 83 -10 119 -25c36 -16 69 -40 98 -69c28 -28 49 -63 64 -100c16 -38 24 -80 24 -123c0 -42 -10 -88 -24 -123c-15 -36 -37 -72 -64 -100c-28 -29 -62 -54 -98 -69c-34 -15 -78 -26 -119 -26c-42 0 -83 11 -118 26s-70 41 -97 68c-28 28 -51 64 -66 101
c-14 35 -24 81 -24 123c0 43 8 85 24 123c14 35 38 71 67 100c27 28 61 54 96 69c36 15 75 25 118 25zM545 511c-25 26 -56 46 -90 61s-70 23 -109 23c-38 0 -74 -8 -109 -23c-34 -15 -65 -36 -89 -61c-26 -27 -46 -58 -61 -95c-14 -34 -21 -74 -21 -113
c0 -41 8 -79 22 -114c15 -36 36 -67 61 -94c24 -26 54 -49 88 -63c33 -14 73 -22 109 -22c37 0 76 9 109 22c34 14 63 36 90 63c24 25 45 57 60 94c15 35 22 73 22 114c0 39 -7 79 -22 113c-15 36 -35 69 -60 95z" />
    <glyph glyph-name="p" unicode="p" horiz-adv-x="461" 
d="M84 0v604h181c24 0 47 -4 67 -12c20 -9 38 -19 55 -35c17 -17 31 -36 39 -54c9 -20 12 -42 12 -66c0 -22 -3 -44 -12 -64c-8 -19 -22 -38 -39 -54s-35 -27 -55 -36c-20 -8 -43 -12 -67 -12h-156v-271h-25zM109 580v-285h156c20 0 40 3 59 11c18 8 33 18 46 31
c12 12 25 30 33 46c7 15 12 37 12 54c0 19 -3 38 -11 56c-7 16 -19 30 -33 45c-12 12 -29 23 -48 31c-19 7 -38 11 -58 11h-156z" />
    <glyph glyph-name="q" unicode="q" horiz-adv-x="702" 
d="M347 620c44 0 83 -10 119 -25c36 -16 69 -40 98 -69c28 -28 50 -63 65 -100c16 -38 23 -80 23 -123c0 -42 -9 -88 -23 -123s-39 -73 -65 -100c-17 -19 -39 -36 -57 -49c7 -3 27 -17 30 -18c14 -7 30 -18 46 -24c12 -5 25 -9 34 -12c10 -3 20 -5 38 -7l-2 -25
c-35 8 -41 8 -43 9c-12 4 -23 8 -35 13c-7 3 -18 8 -27 13c-8 5 -17 9 -26 15c-6 4 -10 5 -13 8c-7 7 -17 11 -25 17c-10 -7 -16 -8 -18 -9c-34 -15 -78 -26 -119 -26c-42 0 -83 11 -118 26s-70 41 -97 68c-28 28 -51 64 -66 101c-14 35 -24 81 -24 123c0 43 8 85 24 123
c14 35 38 71 67 100c27 28 61 54 96 69c36 15 75 25 118 25zM347 10c42 0 77 12 115 23c-11 10 -30 19 -46 24c-14 7 -32 10 -48 14c-14 3 -28 5 -42 6c-33 3 -66 -1 -99 -11c-10 -3 -21 -6 -30 -10c12 -9 27 -18 41 -24c33 -14 73 -22 109 -22zM149 95c8 -8 17 -16 26 -24
c16 8 33 15 46 19c16 4 38 9 57 10c15 1 35 2 49 1c15 -1 32 -4 46 -7c16 -3 33 -8 46 -13c3 -1 13 -6 16 -7c7 -3 14 -6 32 -15c0 0 13 -9 18 -12c22 13 45 30 61 48c24 25 45 58 60 94c15 35 23 73 23 114c0 39 -8 79 -23 113c-15 36 -35 70 -60 95c-25 26 -56 46 -90 61
s-70 23 -109 23c-38 0 -74 -8 -109 -23c-34 -15 -65 -36 -89 -61c-26 -27 -46 -58 -61 -95c-14 -34 -21 -74 -21 -113c0 -41 7 -79 21 -114c15 -36 35 -68 61 -94z" />
    <glyph glyph-name="r" unicode="r" horiz-adv-x="532" 
d="M84 604h209c24 0 47 -4 66 -12c21 -8 40 -19 56 -36s29 -36 37 -53c11 -22 15 -44 15 -66s-5 -44 -14 -64c-9 -19 -21 -39 -38 -54c-16 -15 -34 -27 -56 -36c-16 -6 -30 -11 -48 -12c63 -89 130 -182 193 -271h-30l-192 271h-173v-271h-25v604zM109 580v-285h184
c19 0 38 5 57 12c17 7 33 16 48 30c15 13 23 26 29 40c8 19 15 38 15 60c0 21 -6 42 -16 63c-6 13 -13 26 -27 38c-14 13 -32 23 -49 31c-17 7 -39 11 -57 11h-184z" />
    <glyph glyph-name="s" unicode="s" horiz-adv-x="489" 
d="M81 457c0 -42 18 -68 49 -88c32 -20 80 -34 129 -44c51 -11 101 -27 135 -52c32 -24 53 -62 53 -115c0 -48 -23 -92 -59 -123c-39 -33 -89 -50 -144 -50s-105 18 -142 50s-60 76 -60 128h25c0 -43 20 -82 50 -108c34 -29 78 -45 127 -45s94 16 128 45c30 26 51 62 51 103
c0 43 -18 77 -44 97c-28 21 -78 35 -125 46c-50 12 -102 25 -137 48c-36 24 -60 58 -60 108c0 48 19 89 52 117c36 30 83 46 138 46c50 0 97 -16 131 -46c31 -29 51 -70 50 -121h-25c1 44 -13 78 -41 102c-28 25 -70 40 -115 40c-49 0 -92 -14 -123 -40
c-27 -23 -43 -58 -43 -98z" />
    <glyph glyph-name="t" unicode="t" horiz-adv-x="419" 
d="M25 580v24h369v-24h-176v-580h-24v580h-169z" />
    <glyph glyph-name="u" unicode="u" horiz-adv-x="536" 
d="M435 604h23v-419c0 -29 -5 -55 -14 -79c-10 -24 -25 -45 -41 -63c-16 -17 -39 -33 -61 -43s-49 -16 -74 -16c-28 0 -52 5 -75 16c-23 10 -43 24 -61 42c-17 18 -31 40 -40 64s-15 50 -15 79v419h24v-419c0 -25 4 -48 13 -70c8 -18 23 -42 36 -55c16 -17 33 -29 53 -37
c20 -9 41 -15 65 -15c23 0 45 5 65 15c19 8 37 20 52 36c14 15 28 36 36 56c9 23 14 45 14 70v419z" />
    <glyph glyph-name="v" unicode="v" horiz-adv-x="529" 
d="M502 604h26l-247 -604h-28l-254 604h27l241 -570h2z" />
    <glyph glyph-name="w" unicode="w" horiz-adv-x="748" 
d="M22 604h26c51 -186 105 -378 158 -564h1c52 187 106 378 158 564h20l158 -564h2c50 180 105 384 154 564h27c-53 -190 -115 -413 -167 -604h-31l-152 550h-2c-51 -183 -104 -367 -154 -550h-30z" />
    <glyph glyph-name="x" unicode="x" horiz-adv-x="459" 
d="M41 0h-31l209 313l-197 291h29l183 -274h2l176 274h30l-193 -296l199 -308h-29l-187 290h-2z" />
    <glyph glyph-name="y" unicode="y" horiz-adv-x="427" 
d="M225 0h-24v256l-201 348h29l184 -321h1l184 321h29l-202 -348v-256z" />
    <glyph glyph-name="z" unicode="z" horiz-adv-x="441" 
d="M18 0v28l364 550v2h-343v24h373v-27l-364 -551v-1h367l1 -25h-398z" />
    <glyph glyph-name="exclamdown" unicode="&#xa1;" horiz-adv-x="195" 
d="M110 532h-25v72h25v-72zM110 0h-25v462h25v-462z" />
    <glyph glyph-name="cent" unicode="&#xa2;" horiz-adv-x="502" 
d="M273 502v-400c21 2 41 6 63 16c22 9 44 26 59 42c10 11 19 24 28 38h27c-12 -23 -26 -41 -38 -53c-21 -21 -43 -37 -67 -48s-47 -18 -72 -18v-42h-23v42c-26 0 -49 8 -71 17c-26 11 -49 27 -69 48c-17 18 -35 48 -45 71c-11 25 -17 56 -17 88c0 29 6 60 17 87
c11 26 26 50 45 69c21 22 44 38 69 49c21 10 46 16 71 17v42h23v-42c27 -1 51 -6 72 -16c29 -13 92 -59 107 -106h-27c-8 14 -19 28 -30 40c-16 17 -38 33 -59 43c-19 9 -44 15 -63 16zM250 103v399c-22 -2 -42 -7 -62 -16c-23 -10 -42 -25 -60 -43c-17 -18 -31 -40 -40 -63
c-10 -25 -15 -50 -15 -77c0 -29 5 -55 15 -79c10 -23 23 -45 40 -63c18 -17 38 -32 60 -43c20 -9 39 -15 62 -15z" />
    <glyph glyph-name="sterling" unicode="&#xa3;" horiz-adv-x="527" 
d="M133 67c-6 -9 -11 -19 -18 -28l1 -1c22 6 45 10 69 10c25 0 49 -3 77 -12c22 -8 45 -13 69 -20c16 -5 30 -6 44 -6c31 0 61 10 92 21l10 -21c-34 -13 -69 -25 -102 -25c-17 0 -32 4 -48 7c-29 6 -49 14 -75 22c-23 7 -45 10 -67 10c-26 0 -54 -4 -80 -14
c-18 -7 -32 -13 -44 -19l-12 20c17 13 31 24 42 36c10 12 17 26 25 41c7 14 14 30 18 46c4 17 6 34 6 53c0 18 -3 40 -7 59c-4 16 -7 29 -12 46h-72v25h64c-4 15 -8 33 -11 49c-4 21 -7 40 -7 64c0 28 4 54 13 78c8 20 22 41 40 58c17 15 38 32 59 40c22 9 49 14 76 14
c22 0 47 -5 66 -12c17 -7 39 -19 54 -33c12 -10 55 -46 63 -121l-25 -3c-4 24 -10 44 -19 63c-8 16 -21 32 -34 43s-34 22 -47 28c-18 7 -39 10 -58 10c-22 0 -47 -5 -66 -12c-21 -8 -40 -20 -53 -34c-13 -15 -25 -32 -33 -51c-9 -21 -13 -45 -13 -68c0 -20 3 -39 7 -60
c3 -13 8 -35 14 -53h180v-25h-172c3 -12 7 -28 10 -42c4 -21 7 -41 7 -63s-2 -40 -6 -58c-5 -23 -13 -43 -25 -62z" />
    <glyph glyph-name="yen" unicode="&#xa5;" horiz-adv-x="511" 
d="M267 0h-22v150h-158v24h158v84h-158v23h141l-186 323h29l184 -321h2l184 321h28l-187 -323h141v-23h-156v-84h156v-24h-156v-150z" />
    <glyph glyph-name="brokenbar" unicode="&#xa6;" horiz-adv-x="183" 
d="M78 369v296h25v-296h-25zM78 235h25v-295h-25v295z" />
    <glyph glyph-name="section" unicode="&#xa7;" horiz-adv-x="459" 
d="M64 -1l25 -1c0 -20 2 -37 9 -54c7 -15 12 -28 23 -38c12 -11 27 -20 45 -27s36 -10 55 -10s38 3 56 10c19 7 36 16 48 27c12 10 19 23 26 38c7 17 10 32 10 50c0 16 -5 30 -12 41c-6 13 -18 24 -33 34c-8 6 -25 13 -39 20c-6 3 -5 2 -40 15c-27 11 -55 22 -85 34
c-18 7 -37 17 -51 29c-15 12 -29 24 -39 42c-9 17 -16 36 -16 59c0 13 2 28 6 40c4 14 10 25 17 37c8 13 18 23 24 30c6 6 12 13 23 19c-10 10 -15 20 -20 30c-7 13 -9 29 -9 47c0 22 3 42 10 59c7 18 16 34 32 47c14 12 33 24 50 31c19 7 41 12 61 12c21 0 43 -5 60 -12
c16 -7 34 -18 47 -32c6 -6 45 -38 45 -110h-28c0 21 -3 39 -9 54s-13 28 -24 39c-12 13 -25 21 -40 27c-17 6 -33 9 -51 9c-17 0 -34 -3 -51 -9c-17 -7 -33 -17 -44 -27s-20 -23 -27 -39c-7 -15 -9 -31 -9 -49s4 -31 11 -42c7 -12 18 -24 30 -32c15 -10 32 -19 46 -25
c17 -8 35 -14 53 -22l66 -30c15 -7 28 -15 37 -23c15 -12 27 -24 36 -41s15 -38 15 -58c0 -14 -1 -26 -5 -39c-3 -9 -10 -24 -15 -35c-6 -12 -13 -21 -19 -28c-7 -7 -12 -13 -20 -19c10 -9 20 -20 28 -34c8 -15 13 -30 13 -49c0 -22 -2 -41 -11 -59c-8 -17 -21 -33 -34 -47
c-14 -13 -35 -27 -54 -33c-21 -7 -43 -9 -65 -9s-44 1 -65 9c-19 7 -37 18 -51 32c-4 6 -41 45 -41 112zM162 160c26 -11 52 -20 86 -34c10 -4 18 -7 28 -11c14 -5 32 -14 49 -25c6 5 13 10 19 19c7 8 13 17 19 27c5 8 9 18 12 28c3 12 5 24 5 34c0 17 -5 32 -12 47
c-7 12 -19 24 -29 33c-13 9 -27 19 -46 27l-54 23c-16 8 -27 10 -52 21c-15 7 -38 19 -51 29c-18 -11 -35 -26 -47 -46c-5 -9 -10 -21 -13 -30c-3 -12 -5 -24 -5 -34c0 -19 4 -34 11 -47c8 -14 22 -25 31 -34c12 -9 34 -21 49 -27z" />
    <glyph glyph-name="copyright" unicode="&#xa9;" horiz-adv-x="733" 
d="M368 496c26 0 50 -5 73 -15c19 -8 68 -37 93 -91h-26c-7 12 -17 24 -26 33c-14 13 -30 24 -51 35c-19 10 -40 13 -63 13c-22 0 -43 -5 -63 -13c-19 -8 -36 -19 -51 -35c-14 -15 -28 -35 -36 -55s-12 -43 -12 -65c0 -23 4 -44 12 -67c8 -21 21 -40 35 -54
c15 -16 32 -26 52 -34s41 -15 63 -15c23 0 43 7 63 15c19 8 36 19 51 35c9 9 17 18 25 30h26c-12 -22 -22 -37 -33 -48c-17 -16 -37 -31 -59 -41c-23 -10 -47 -15 -73 -15s-50 5 -73 15c-22 10 -43 25 -60 41c-17 17 -30 40 -39 63c-9 21 -14 48 -14 75c0 26 5 51 14 75
c9 23 22 44 39 60c19 18 38 34 60 43c23 9 47 15 73 15zM46 302c0 176 142 318 318 318s319 -142 319 -318s-143 -317 -319 -317s-318 141 -318 317zM71 302c0 -163 130 -292 292 -292s293 129 293 292s-131 293 -293 293s-292 -130 -292 -293z" />
    <glyph glyph-name="ordfeminine" unicode="&#xaa;" horiz-adv-x="405" 
d="M311 338v50h-2c-5 -9 -10 -17 -15 -22c-12 -12 -31 -25 -46 -32c-16 -7 -37 -11 -54 -11c-20 0 -40 5 -55 11c-16 7 -35 19 -47 32c-11 13 -22 31 -29 48s-11 38 -11 57c0 20 4 40 11 57c7 19 18 35 30 48c12 12 30 24 46 32c15 7 36 12 55 12s37 -4 54 -12
c16 -7 31 -20 46 -33c5 -5 11 -13 16 -20h2c0 15 -1 36 -1 49h23v-266h-23zM194 347c15 0 30 3 44 10s27 15 38 26s19 24 25 40c7 16 10 31 10 48c0 16 -4 32 -10 47c-5 15 -11 26 -19 34c-15 16 -28 26 -44 33c-14 7 -29 10 -44 10c-16 0 -32 -3 -46 -10s-27 -15 -43 -32
c-8 -8 -15 -20 -20 -35s-8 -31 -8 -47s3 -33 8 -48s16 -30 26 -40s23 -19 37 -26s30 -10 46 -10z" />
    <glyph glyph-name="guillemotleft" unicode="&#xab;" horiz-adv-x="320" 
d="M236 336l-82 -109v-2l82 -107v-40l-107 141v15l107 142v-40zM161 336l-82 -109v-2l82 -107v-40l-107 141v15l107 142v-40z" />
    <glyph glyph-name="registered" unicode="&#xae;" horiz-adv-x="733" 
d="M393 487h-133v-370h23v164h99l116 -164h30c-36 51 -80 113 -118 165c7 1 16 3 24 7c12 5 24 12 33 22c9 9 18 21 24 33c7 13 8 27 8 41c0 12 -2 26 -8 39c-7 13 -15 25 -24 33c-11 11 -23 18 -33 23c-12 5 -26 7 -41 7zM283 306v157h109c10 0 21 -2 32 -7
c11 -4 20 -11 27 -17c8 -6 12 -14 17 -24s7 -20 7 -30c0 -14 -4 -26 -11 -41c-1 -3 -6 -8 -14 -15c-10 -8 -16 -12 -23 -15c-12 -5 -24 -8 -35 -8h-109zM47 302c0 176 142 318 318 318s319 -142 319 -318s-143 -317 -319 -317s-318 141 -318 317zM72 302
c0 -163 130 -292 292 -292s293 129 293 292s-131 293 -293 293s-292 -130 -292 -293z" />
    <glyph glyph-name="degree" unicode="&#xb0;" horiz-adv-x="351" 
d="M51 495c0 69 56 125 124 125s124 -56 124 -125s-56 -125 -124 -125s-124 56 -124 125zM74 494c0 -56 44 -101 100 -101s101 45 101 101s-45 101 -101 101s-100 -45 -100 -101z" />
    <glyph glyph-name="paragraph" unicode="&#xb6;" horiz-adv-x="475" 
d="M346 580h-103v-640h-25v331h-17c-25 0 -49 3 -69 12c-21 9 -40 21 -54 36c-15 16 -29 35 -38 54c-8 19 -14 42 -14 64s6 47 14 66c8 17 22 37 38 54c14 15 33 26 54 35c20 9 44 12 69 12h218v-24h-48v-640h-25v640z" />
    <glyph glyph-name="ordmasculine" unicode="&#xba;" horiz-adv-x="385" 
d="M48 471c0 82 64 149 143 149s143 -67 143 -149s-64 -149 -143 -149s-143 67 -143 149zM72 470c0 -69 53 -124 119 -124s119 55 119 124s-53 125 -119 125s-119 -56 -119 -125z" />
    <glyph glyph-name="guillemotright" unicode="&#xbb;" horiz-adv-x="320" 
d="M163 227l-82 109v40l107 -142v-15l-107 -141v40l82 107v2zM238 227l-82 109v40l107 -142v-15l-107 -141v40l82 107v2z" />
    <glyph glyph-name="questiondown" unicode="&#xbf;" horiz-adv-x="450" 
d="M225 620v-72h-24v72h24zM382 182l25 -1c-1 -29 -7 -54 -17 -75c-9 -20 -23 -40 -38 -56c-15 -14 -37 -29 -54 -36c-21 -8 -46 -14 -70 -14c-26 0 -47 5 -68 14c-22 9 -41 22 -57 38c-16 17 -30 35 -38 55c-9 23 -13 46 -13 70c0 16 4 36 9 50c4 12 14 28 24 42
c9 13 19 24 30 36l38 39c8 8 25 28 30 37c6 13 12 25 14 35c3 10 4 19 4 27v34h24v-34c0 -11 0 -22 -3 -33c-2 -7 -6 -18 -13 -30c-5 -8 -21 -35 -27 -42c-6 -6 -11 -13 -17 -19c-10 -10 -22 -19 -32 -31c-10 -11 -21 -21 -30 -34c-7 -11 -14 -22 -19 -36
c-5 -13 -9 -27 -9 -41c0 -19 4 -41 13 -60c8 -16 20 -36 32 -49c11 -11 34 -24 49 -31c17 -8 39 -12 59 -12c21 0 41 3 60 11c18 7 36 19 48 31c15 15 26 31 32 48c9 21 13 43 14 67z" />
    <glyph glyph-name="grave" unicode="`" horiz-adv-x="248" 
d="M35 778h33l115 -130h-32z" />
    <glyph glyph-name="acute" unicode="&#xb4;" horiz-adv-x="248" 
d="M66 648l115 130h33l-115 -130h-33z" />
    <glyph glyph-name="circumflex" unicode="&#x2c6;" horiz-adv-x="318" 
d="M238 652l-79 100h-2l-77 -100h-30l98 126h19l101 -126h-30z" />
    <glyph glyph-name="tilde" unicode="&#x2dc;" horiz-adv-x="354" 
d="M72 672l-19 14c10 14 19 26 31 34s25 11 38 11c24 0 46 -11 67 -22c16 -8 37 -18 57 -18c10 0 21 4 28 8c10 6 15 16 22 25l20 -13c-11 -13 -20 -24 -29 -31c-12 -9 -25 -14 -41 -14c-21 0 -42 10 -60 18c-5 2 -16 8 -20 10c-14 8 -28 12 -45 12c-8 0 -17 -1 -23 -5
c-10 -6 -18 -16 -26 -29z" />
    <glyph glyph-name="dieresis" unicode="&#xa8;" horiz-adv-x="222" 
d="M45 656v73h25v-73h-25zM150 656v73h25v-73h-25z" />
    <glyph glyph-name="ring" unicode="&#x2da;" horiz-adv-x="218" 
d="M45 698c0 35 28 64 63 64s63 -29 63 -64s-28 -64 -63 -64s-63 29 -63 64zM70 697c0 -22 16 -39 38 -39s39 17 39 39s-17 39 -39 39s-38 -17 -38 -39z" />
    <glyph glyph-name="cedilla" unicode="&#xb8;" horiz-adv-x="215" 
d="M134 -1l-16 -38l1 -1c5 1 11 1 14 -1c35 -14 35 -42 35 -55c0 -18 -9 -63 -61 -63c-48 0 -57 30 -63 57h25c5 -17 8 -34 38 -34c11 0 38 5 38 40c0 13 -18 46 -44 32l-16 15l22 48h27z" />
    <glyph glyph-name="ccedilla" unicode="&#xe7;" horiz-adv-x="658" 
d="M69 303c0 -41 7 -79 21 -114c15 -36 36 -67 61 -94c24 -26 54 -49 89 -63c33 -14 73 -22 109 -22s76 9 109 22c34 14 63 36 90 63c15 15 29 36 43 58h27c-16 -30 -36 -56 -53 -73c-28 -28 -62 -54 -97 -69c-34 -15 -77 -25 -117 -26l-10 -24l1 -1c5 1 11 1 14 -1
c35 -14 35 -42 35 -55c0 -18 -9 -63 -61 -63c-48 0 -57 30 -63 57h25c5 -17 8 -34 38 -34c11 0 38 5 38 40c0 13 -18 46 -44 32l-16 15l16 35c-34 4 -66 13 -93 25c-35 15 -70 41 -97 68c-28 28 -52 64 -66 101c-14 35 -24 81 -24 123c0 43 9 85 24 123c14 35 38 71 67 100
c27 28 61 54 96 69s75 25 118 25c44 0 83 -9 119 -25c35 -15 68 -40 97 -70c8 -8 40 -47 51 -75h-23c-14 22 -29 44 -45 61c-25 26 -56 46 -90 61s-71 23 -109 23s-74 -8 -109 -23s-65 -36 -89 -61c-26 -27 -46 -58 -61 -95c-14 -34 -21 -74 -21 -113z" />
    <glyph glyph-name="Eth" unicode="&#xd0;" horiz-adv-x="601" 
d="M22 297v24h58v283h206c43 0 80 -8 111 -22c30 -13 60 -35 81 -59c23 -26 40 -62 52 -98c13 -38 17 -79 17 -122c0 -44 -8 -89 -20 -124c-13 -36 -34 -70 -58 -96c-25 -27 -55 -48 -89 -61c-35 -13 -74 -22 -119 -22l-181 1v296h-58zM105 579v-258h209v-24h-209v-272h156
c41 0 77 6 109 19c31 13 60 32 82 54c23 23 40 54 53 90c12 34 18 73 18 115c0 39 -6 80 -16 115c-8 31 -28 68 -47 91c-17 20 -44 39 -72 51c-29 12 -63 19 -102 19h-181z" />
    <glyph glyph-name="eth" unicode="&#xf0;" horiz-adv-x="601" 
d="M22 297v24h58v283h206c43 0 80 -8 111 -22c30 -13 60 -35 81 -59c23 -26 40 -62 52 -98c13 -38 17 -79 17 -122c0 -44 -8 -89 -20 -124c-13 -36 -34 -70 -58 -96c-25 -27 -55 -48 -89 -61c-35 -13 -74 -22 -119 -22l-181 1v296h-58zM105 579v-258h209v-24h-209v-272h156
c41 0 77 6 109 19c31 13 60 32 82 54c23 23 40 54 53 90c12 34 18 73 18 115c0 39 -6 80 -16 115c-8 31 -28 68 -47 91c-17 20 -44 39 -72 51c-29 12 -63 19 -102 19h-181z" />
    <glyph glyph-name="multiply" unicode="&#xd7;" horiz-adv-x="508" 
d="M434 418l18 -18l-184 -186c60 -62 124 -127 184 -189l-18 -16l-184 187c-59 -61 -120 -126 -179 -187l-18 16l182 189c-59 61 -123 126 -182 187l18 17l179 -185c60 60 125 126 184 185z" />
    <glyph glyph-name="Oslash" unicode="&#xd8;" horiz-adv-x="698" 
d="M101 -16l54 74c-8 7 -15 14 -22 21c-28 28 -51 64 -66 101c-14 35 -24 81 -24 123c0 43 8 85 24 123c14 35 38 71 67 100c27 28 61 54 96 69c36 15 75 25 118 25c44 0 83 -10 119 -25c19 -9 37 -20 55 -32l53 73l20 -13l-55 -75c9 -7 17 -14 25 -22
c28 -28 49 -63 64 -100c16 -38 24 -80 24 -123c0 -42 -10 -88 -24 -123c-15 -36 -37 -72 -64 -100c-28 -29 -62 -54 -98 -69c-34 -15 -78 -26 -119 -26c-42 0 -83 11 -118 26c-20 8 -39 20 -57 33l-53 -74zM547 511c-7 6 -13 12 -20 18l-340 -467c16 -12 33 -23 52 -30
c33 -14 73 -22 109 -22c37 0 76 9 109 22c34 14 63 36 90 63c24 25 45 57 60 94c15 35 22 73 22 114c0 39 -7 79 -22 113c-15 36 -35 69 -60 95zM151 95c5 -6 11 -13 17 -18l340 467c-16 11 -33 20 -51 28c-34 15 -70 23 -109 23c-38 0 -74 -8 -109 -23
c-34 -15 -65 -36 -89 -61c-26 -27 -46 -58 -61 -95c-14 -34 -21 -74 -21 -113c0 -41 8 -79 22 -114c15 -36 36 -67 61 -94z" />
    <glyph glyph-name="oslash" unicode="&#xf8;" horiz-adv-x="698" 
d="M101 -16l54 74c-8 7 -15 14 -22 21c-28 28 -51 64 -66 101c-14 35 -24 81 -24 123c0 43 8 85 24 123c14 35 38 71 67 100c27 28 61 54 96 69c36 15 75 25 118 25c44 0 83 -10 119 -25c19 -9 37 -20 55 -32l53 73l20 -13l-55 -75c9 -7 17 -14 25 -22
c28 -28 49 -63 64 -100c16 -38 24 -80 24 -123c0 -42 -10 -88 -24 -123c-15 -36 -37 -72 -64 -100c-28 -29 -62 -54 -98 -69c-34 -15 -78 -26 -119 -26c-42 0 -83 11 -118 26c-20 8 -39 20 -57 33l-53 -74zM547 511c-7 6 -13 12 -20 18l-340 -467c16 -12 33 -23 52 -30
c33 -14 73 -22 109 -22c37 0 76 9 109 22c34 14 63 36 90 63c24 25 45 57 60 94c15 35 22 73 22 114c0 39 -7 79 -22 113c-15 36 -35 69 -60 95zM151 95c5 -6 11 -13 17 -18l340 467c-16 11 -33 20 -51 28c-34 15 -70 23 -109 23c-38 0 -74 -8 -109 -23
c-34 -15 -65 -36 -89 -61c-26 -27 -46 -58 -61 -95c-14 -34 -21 -74 -21 -113c0 -41 8 -79 22 -114c15 -36 36 -67 61 -94z" />
    <glyph glyph-name="thorn" unicode="&#xfe;" horiz-adv-x="462" 
d="M84 604h25v-135h155c24 0 47 -5 67 -13s38 -19 55 -35c18 -16 30 -34 39 -54c8 -19 12 -41 12 -65s-4 -45 -12 -65c-9 -20 -22 -37 -39 -53s-35 -28 -55 -36c-20 -7 -43 -12 -67 -12h-155v-136h-25v604zM109 445v-286h155c20 0 39 4 58 12s36 19 47 31c14 15 26 30 33 45
c8 19 12 36 12 55c0 17 -4 39 -12 55c-8 17 -21 35 -32 45c-13 13 -29 24 -48 31c-19 8 -38 12 -58 12h-155z" />
    <glyph glyph-name="Thorn" unicode="&#xde;" horiz-adv-x="462" 
d="M84 604h25v-135h155c24 0 47 -5 67 -13s38 -19 55 -35c18 -16 30 -34 39 -54c8 -19 12 -41 12 -65s-4 -45 -12 -65c-9 -20 -22 -37 -39 -53s-35 -28 -55 -36c-20 -7 -43 -12 -67 -12h-155v-136h-25v604zM109 445v-286h155c20 0 39 4 58 12s36 19 47 31c14 15 26 30 33 45
c8 19 12 36 12 55c0 17 -4 39 -12 55c-8 17 -21 35 -32 45c-13 13 -29 24 -48 31c-19 8 -38 12 -58 12h-155z" />
    <glyph glyph-name="divide" unicode="&#xf7;" horiz-adv-x="557" 
d="M67 225h418v-23h-418v23zM266 0v72h24v-72h-24zM264 354v73h25v-73h-25z" />
    <glyph glyph-name="uni00AD" unicode="&#xad;" horiz-adv-x="281" 
d="M215 225v-23h-149v23h149z" />
    <glyph glyph-name="guilsinglright" unicode="&#x203a;" horiz-adv-x="244" 
d="M163 227l-82 109v40l107 -142v-15l-107 -141v40l82 107v2z" />
    <glyph glyph-name="guilsinglleft" unicode="&#x2039;" horiz-adv-x="244" 
d="M161 336l-82 -109v-2l82 -107v-40l-107 141v15l107 142v-40z" />
    <glyph glyph-name="perthousand" unicode="&#x2030;" horiz-adv-x="951" 
d="M493 604h28l-373 -604h-28zM45 472c0 76 60 138 133 138c74 0 134 -62 134 -138c0 -75 -60 -137 -134 -137c-73 0 -133 62 -133 137zM70 472c0 -61 49 -112 108 -112c60 0 109 51 109 112c0 62 -49 113 -109 113c-59 0 -108 -51 -108 -113zM329 130c0 76 60 138 133 138
c74 0 134 -62 134 -138c0 -75 -60 -137 -134 -137c-73 0 -133 62 -133 137zM354 130c0 -61 49 -112 108 -112c60 0 109 51 109 112c0 62 -49 113 -109 113c-59 0 -108 -51 -108 -113zM647 130c0 76 60 138 133 138c74 0 134 -62 134 -138c0 -75 -60 -137 -134 -137
c-73 0 -133 62 -133 137zM672 130c0 -61 49 -112 108 -112c60 0 109 51 109 112c0 62 -49 113 -109 113c-59 0 -108 -51 -108 -113z" />
    <glyph glyph-name="fraction" unicode="&#x2044;" horiz-adv-x="385" 
d="M366 604h28l-373 -604h-28z" />
    <glyph glyph-name="endash" unicode="&#x2013;" horiz-adv-x="430" 
d="M364 225v-23h-298v23h298z" />
    <glyph glyph-name="figuredash" unicode="&#x2012;" horiz-adv-x="430" 
d="M364 225v-23h-298v23h298z" />
    <glyph glyph-name="minus" unicode="&#x2212;" horiz-adv-x="385" 
d="M319 225v-23h-253v23h253z" />
    <glyph glyph-name="emdash" unicode="&#x2014;" horiz-adv-x="668" 
d="M602 225v-23h-536v23h536z" />
    <glyph glyph-name="bullet" unicode="&#x2022;" horiz-adv-x="336" 
d="M56 302c0 61 49 110 110 110s111 -49 111 -110s-50 -110 -111 -110s-110 49 -110 110z" />
    <glyph glyph-name="asciicircum" unicode="^" horiz-adv-x="419" 
d="M208 574l-132 -260h-26l149 290h22l148 -290h-26z" />
    <glyph glyph-name="quotedblright" unicode="&#x201d;" horiz-adv-x="266" 
d="M111 604h26l-55 -172h-26zM198 604h24l-54 -172h-26z" />
    <glyph glyph-name="quotedblleft" unicode="&#x201c;" horiz-adv-x="266" 
d="M127 604h26l55 -172h-26zM41 604h25l56 -172h-27z" />
    <glyph glyph-name="quoteleft" unicode="&#x2018;" horiz-adv-x="179" 
d="M41 604h25l56 -172h-27z" />
    <glyph glyph-name="quoteright" unicode="&#x2019;" horiz-adv-x="179" 
d="M110 604h26l-56 -172h-25z" />
    <glyph glyph-name="quotesinglbase" unicode="&#x201a;" horiz-adv-x="213" 
d="M105 83h26l-55 -173h-26z" />
    <glyph glyph-name="percent" horiz-adv-x="637" 
d="M489 604h28l-373 -604h-28zM41 472c0 76 60 138 133 138c74 0 134 -62 134 -138c0 -75 -60 -137 -134 -137c-73 0 -133 62 -133 137zM66 472c0 -61 49 -112 108 -112c60 0 109 51 109 112c0 62 -49 113 -109 113c-59 0 -108 -51 -108 -113zM325 130c0 76 60 138 133 138
c74 0 134 -62 134 -138c0 -75 -60 -137 -134 -137c-73 0 -133 62 -133 137zM350 130c0 -61 49 -112 108 -112c60 0 109 51 109 112c0 62 -49 113 -109 113c-59 0 -108 -51 -108 -113z" />
    <glyph glyph-name="quotedblbase" unicode="&#x201e;" horiz-adv-x="300" 
d="M106 83h25l-55 -173h-26zM192 83h25l-54 -173h-27z" />
    <glyph glyph-name="caron" unicode="&#x2c7;" horiz-adv-x="302" 
d="M41 778h30l78 -100h1l79 100h30l-101 -126h-19z" />
    <glyph glyph-name="Euro" unicode="&#x20ac;" horiz-adv-x="672" 
d="M409 620c40 0 82 -9 117 -25c28 -13 52 -29 77 -49l-11 -24c-25 21 -49 38 -75 50c-34 15 -71 23 -108 23c-38 0 -75 -8 -108 -23c-34 -14 -64 -35 -89 -61c-25 -25 -46 -59 -60 -95c-7 -19 -12 -35 -16 -54h386l-12 -24h-378c-3 -25 -3 -53 1 -78h343l-10 -25h-329
c4 -16 9 -32 15 -47c15 -35 34 -66 60 -93c24 -26 54 -49 89 -63c31 -13 72 -24 108 -24s75 10 108 23c32 13 62 37 94 71v-35c-27 -24 -57 -43 -85 -56c-34 -15 -79 -26 -117 -26c-43 0 -85 11 -118 26c-35 15 -70 40 -96 69c-27 28 -50 63 -65 100c-7 16 -15 37 -19 55
h-67l11 25h53c-3 23 -2 53 -1 78h-63l12 24h54c4 23 12 46 20 64c15 36 39 73 65 99c28 29 61 54 96 70c35 15 75 25 118 25z" />
    <glyph glyph-name="trademark" unicode="&#x2122;" horiz-adv-x="802" 
d="M350 254v350h31c21 -42 43 -89 64 -131c31 -61 58 -121 90 -182h2c50 103 100 211 150 313h33v-350h-23c0 103 -1 207 -1 310h-1c-24 -49 -47 -96 -70 -144c-27 -54 -54 -112 -81 -166h-18l-151 307h-2v-307h-23zM180 252h-23v329h-98v24h220v-24h-99v-329z" />
    <glyph glyph-name="scaron" unicode="&#x161;" horiz-adv-x="489" 
d="M81 457c0 40 16 75 43 98c31 26 74 40 123 40c45 0 87 -15 115 -40c28 -24 42 -58 41 -102h25c1 51 -19 92 -50 121c-34 30 -81 46 -131 46c-55 0 -102 -16 -138 -46c-33 -28 -52 -69 -52 -117c0 -50 24 -84 60 -108c35 -23 87 -36 137 -48c47 -11 97 -25 125 -46
c26 -20 44 -54 44 -97c0 -41 -21 -77 -51 -103c-34 -29 -79 -45 -128 -45s-93 16 -127 45c-30 26 -50 65 -50 108h-25c0 -52 23 -96 60 -128s87 -50 142 -50s105 17 144 50c36 31 59 75 59 123c0 53 -21 91 -53 115c-34 25 -84 41 -135 52c-49 10 -97 24 -129 44
c-31 20 -49 46 -49 88zM135 778h30l78 -100h1l79 100h30l-101 -126h-19z" />
    <glyph glyph-name="zcaron" unicode="&#x17e;" horiz-adv-x="441" 
d="M18 0v28l364 550v2h-343v24h373v-27l-364 -551v-1h367l1 -25h-398zM107 778h30l78 -100h1l79 100h30l-101 -126h-19z" />
    <glyph glyph-name="ydieresis" unicode="&#xff;" horiz-adv-x="427" 
d="M225 0h-24v256l-201 348h29l184 -321h1l184 321h29l-202 -348v-256zM149 656v73h25v-73h-25zM254 656v73h25v-73h-25z" />
    <glyph glyph-name="adieresis" unicode="&#xe4;" 
d="M530 0h-26l-82 198h-315c-24 -60 -58 -138 -84 -198h-28l257 604h28zM116 221h296c-50 120 -95 229 -146 349h-2c-50 -118 -98 -231 -148 -349zM205 656v73h25v-73h-25zM310 656v73h25v-73h-25z" />
    <glyph glyph-name="edieresis" unicode="&#xeb;" horiz-adv-x="468" 
d="M84 604v-604h332v25h-308v278h284v24h-284v253h304v24h-328zM185 656v73h25v-73h-25zM290 656v73h25v-73h-25z" />
    <glyph glyph-name="idieresis" unicode="&#xef;" horiz-adv-x="183" 
d="M103 0v604h-25v-604h25zM26 656v73h25v-73h-25zM131 656v73h25v-73h-25z" />
    <glyph glyph-name="odieresis" unicode="&#xf6;" horiz-adv-x="698" 
d="M346 620c44 0 83 -10 119 -25c36 -16 69 -40 98 -69c28 -28 49 -63 64 -100c16 -38 24 -80 24 -123c0 -42 -10 -88 -24 -123c-15 -36 -37 -72 -64 -100c-28 -29 -62 -54 -98 -69c-34 -15 -78 -26 -119 -26c-42 0 -83 11 -118 26s-70 41 -97 68c-28 28 -51 64 -66 101
c-14 35 -24 81 -24 123c0 43 8 85 24 123c14 35 38 71 67 100c27 28 61 54 96 69c36 15 75 25 118 25zM545 511c-25 26 -56 46 -90 61s-70 23 -109 23c-38 0 -74 -8 -109 -23c-34 -15 -65 -36 -89 -61c-26 -27 -46 -58 -61 -95c-14 -34 -21 -74 -21 -113
c0 -41 8 -79 22 -114c15 -36 36 -67 61 -94c24 -26 54 -49 88 -63c33 -14 73 -22 109 -22c37 0 76 9 109 22c34 14 63 36 90 63c24 25 45 57 60 94c15 35 22 73 22 114c0 39 -7 79 -22 113c-15 36 -35 69 -60 95zM284 656v73h25v-73h-25zM389 656v73h25v-73h-25z" />
    <glyph glyph-name="udieresis" unicode="&#xfc;" horiz-adv-x="536" 
d="M435 604h23v-419c0 -29 -5 -55 -14 -79c-10 -24 -25 -45 -41 -63c-16 -17 -39 -33 -61 -43s-49 -16 -74 -16c-28 0 -52 5 -75 16c-23 10 -43 24 -61 42c-17 18 -31 40 -40 64s-15 50 -15 79v419h24v-419c0 -25 4 -48 13 -70c8 -18 23 -42 36 -55c16 -17 33 -29 53 -37
c20 -9 41 -15 65 -15c23 0 45 5 65 15c19 8 37 20 52 36c14 15 28 36 36 56c9 23 14 45 14 70v419zM201 656v73h25v-73h-25zM306 656v73h25v-73h-25z" />
    <glyph glyph-name="agrave" unicode="&#xe0;" 
d="M530 0h-26l-82 198h-315c-24 -60 -58 -138 -84 -198h-28l257 604h28zM116 221h296c-50 120 -95 229 -146 349h-2c-50 -118 -98 -231 -148 -349zM177 778h33l115 -130h-32z" />
    <glyph glyph-name="egrave" unicode="&#xe8;" horiz-adv-x="468" 
d="M84 0v604h328v-24h-304v-253h284v-24h-284v-278h308v-25h-332zM156 778h33l115 -130h-32z" />
    <glyph glyph-name="igrave" unicode="&#xec;" horiz-adv-x="183" 
d="M103 604v-604h-25v604h25zM0 778h33l115 -130h-32z" />
    <glyph glyph-name="ograve" unicode="&#xf2;" horiz-adv-x="698" 
d="M346 620c44 0 83 -10 119 -25c36 -16 69 -40 98 -69c28 -28 49 -63 64 -100c16 -38 24 -80 24 -123c0 -42 -10 -88 -24 -123c-15 -36 -37 -72 -64 -100c-28 -29 -62 -54 -98 -69c-34 -15 -78 -26 -119 -26c-42 0 -83 11 -118 26s-70 41 -97 68c-28 28 -51 64 -66 101
c-14 35 -24 81 -24 123c0 43 8 85 24 123c14 35 38 71 67 100c27 28 61 54 96 69c36 15 75 25 118 25zM545 511c-25 26 -56 46 -90 61s-70 23 -109 23c-38 0 -74 -8 -109 -23c-34 -15 -65 -36 -89 -61c-26 -27 -46 -58 -61 -95c-14 -34 -21 -74 -21 -113
c0 -41 8 -79 22 -114c15 -36 36 -67 61 -94c24 -26 54 -49 88 -63c33 -14 73 -22 109 -22c37 0 76 9 109 22c34 14 63 36 90 63c24 25 45 57 60 94c15 35 22 73 22 114c0 39 -7 79 -22 113c-15 36 -35 69 -60 95zM255 778h33l115 -130h-32z" />
    <glyph glyph-name="ugrave" unicode="&#xf9;" horiz-adv-x="536" 
d="M435 604h23v-419c0 -29 -5 -55 -14 -79c-10 -24 -25 -45 -41 -63c-16 -17 -39 -33 -61 -43s-49 -16 -74 -16c-28 0 -52 5 -75 16c-23 10 -43 24 -61 42c-17 18 -31 40 -40 64s-15 50 -15 79v419h24v-419c0 -25 4 -48 13 -70c8 -18 23 -42 36 -55c16 -17 33 -29 53 -37
c20 -9 41 -15 65 -15c23 0 45 5 65 15c19 8 37 20 52 36c14 15 28 36 36 56c9 23 14 45 14 70v419zM173 778h33l115 -130h-32z" />
    <glyph glyph-name="aacute" unicode="&#xe1;" 
d="M530 0h-26l-82 198h-315c-24 -60 -58 -138 -84 -198h-28l257 604h28zM116 221h296c-50 120 -95 229 -146 349h-2c-50 -118 -98 -231 -148 -349zM220 648l115 130h33l-115 -130h-33z" />
    <glyph glyph-name="eacute" unicode="&#xe9;" horiz-adv-x="468" 
d="M84 604v-604h332v25h-308v278h284v24h-284v253h304v24h-328zM193 648l115 130h33l-115 -130h-33z" />
    <glyph glyph-name="iacute" unicode="&#xed;" horiz-adv-x="183" 
d="M104 0v604h-25v-604h25zM34 648l115 130h33l-115 -130h-33z" />
    <glyph glyph-name="oacute" unicode="&#xf3;" horiz-adv-x="698" 
d="M346 620c44 0 83 -10 119 -25c36 -16 69 -40 98 -69c28 -28 49 -63 64 -100c16 -38 24 -80 24 -123c0 -42 -10 -88 -24 -123c-15 -36 -37 -72 -64 -100c-28 -29 -62 -54 -98 -69c-34 -15 -78 -26 -119 -26c-42 0 -83 11 -118 26s-70 41 -97 68c-28 28 -51 64 -66 101
c-14 35 -24 81 -24 123c0 43 8 85 24 123c14 35 38 71 67 100c27 28 61 54 96 69c36 15 75 25 118 25zM545 511c-25 26 -56 46 -90 61s-70 23 -109 23c-38 0 -74 -8 -109 -23c-34 -15 -65 -36 -89 -61c-26 -27 -46 -58 -61 -95c-14 -34 -21 -74 -21 -113
c0 -41 8 -79 22 -114c15 -36 36 -67 61 -94c24 -26 54 -49 88 -63c33 -14 73 -22 109 -22c37 0 76 9 109 22c34 14 63 36 90 63c24 25 45 57 60 94c15 35 22 73 22 114c0 39 -7 79 -22 113c-15 36 -35 69 -60 95zM292 648l115 130h33l-115 -130h-33z" />
    <glyph glyph-name="uacute" unicode="&#xfa;" horiz-adv-x="536" 
d="M435 604h23v-419c0 -29 -5 -55 -14 -79c-10 -24 -25 -45 -41 -63c-16 -17 -39 -33 -61 -43s-49 -16 -74 -16c-28 0 -52 5 -75 16c-23 10 -43 24 -61 42c-17 18 -31 40 -40 64s-15 50 -15 79v419h24v-419c0 -25 4 -48 13 -70c8 -18 23 -42 36 -55c16 -17 33 -29 53 -37
c20 -9 41 -15 65 -15c23 0 45 5 65 15c19 8 37 20 52 36c14 15 28 36 36 56c9 23 14 45 14 70v419zM212 648l115 130h33l-115 -130h-33z" />
    <glyph glyph-name="yacute" unicode="&#xfd;" horiz-adv-x="427" 
d="M225 0h-24v256l-201 348h29l184 -321h1l184 321h29l-202 -348v-256zM156 648l115 130h33l-115 -130h-33z" />
    <glyph glyph-name="acircumflex" unicode="&#xe2;" 
d="M530 0h-26l-82 198h-315c-24 -60 -58 -138 -84 -198h-28l257 604h28zM116 221h296c-50 120 -95 229 -146 349h-2c-50 -118 -98 -231 -148 -349zM348 652l-79 100h-2l-77 -100h-30l98 126h19l101 -126h-30z" />
    <glyph glyph-name="ecircumflex" unicode="&#xea;" horiz-adv-x="468" 
d="M84 604v-604h332v25h-308v278h284v24h-284v253h304v24h-328zM328 652l-79 100h-2l-77 -100h-30l98 126h19l101 -126h-30z" />
    <glyph glyph-name="icircumflex" unicode="&#xee;" horiz-adv-x="183" 
d="M103 0v604h-25v-604h25zM170 652l-79 100h-2l-77 -100h-30l98 126h19l101 -126h-30z" />
    <glyph glyph-name="ocircumflex" unicode="&#xf4;" horiz-adv-x="698" 
d="M346 620c44 0 83 -10 119 -25c36 -16 69 -40 98 -69c28 -28 49 -63 64 -100c16 -38 24 -80 24 -123c0 -42 -10 -88 -24 -123c-15 -36 -37 -72 -64 -100c-28 -29 -62 -54 -98 -69c-34 -15 -78 -26 -119 -26c-42 0 -83 11 -118 26s-70 41 -97 68c-28 28 -51 64 -66 101
c-14 35 -24 81 -24 123c0 43 8 85 24 123c14 35 38 71 67 100c27 28 61 54 96 69c36 15 75 25 118 25zM545 511c-25 26 -56 46 -90 61s-70 23 -109 23c-38 0 -74 -8 -109 -23c-34 -15 -65 -36 -89 -61c-26 -27 -46 -58 -61 -95c-14 -34 -21 -74 -21 -113
c0 -41 8 -79 22 -114c15 -36 36 -67 61 -94c24 -26 54 -49 88 -63c33 -14 73 -22 109 -22c37 0 76 9 109 22c34 14 63 36 90 63c24 25 45 57 60 94c15 35 22 73 22 114c0 39 -7 79 -22 113c-15 36 -35 69 -60 95zM428 652l-79 100h-2l-77 -100h-30l98 126h19l101 -126h-30z
" />
    <glyph glyph-name="ucircumflex" unicode="&#xfb;" horiz-adv-x="536" 
d="M435 604h23v-419c0 -29 -5 -55 -14 -79c-10 -24 -25 -45 -41 -63c-16 -17 -39 -33 -61 -43s-49 -16 -74 -16c-28 0 -52 5 -75 16c-23 10 -43 24 -61 42c-17 18 -31 40 -40 64s-15 50 -15 79v419h24v-419c0 -25 4 -48 13 -70c8 -18 23 -42 36 -55c16 -17 33 -29 53 -37
c20 -9 41 -15 65 -15c23 0 45 5 65 15c19 8 37 20 52 36c14 15 28 36 36 56c9 23 14 45 14 70v419zM347 652l-79 100h-2l-77 -100h-30l98 126h19l101 -126h-30z" />
    <glyph glyph-name="atilde" unicode="&#xe3;" 
d="M530 0h-26l-82 198h-315c-24 -60 -58 -138 -84 -198h-28l257 604h28zM116 221h296c-50 120 -95 229 -146 349h-2c-50 -118 -98 -231 -148 -349zM160 672l-19 14c10 14 19 26 31 34s25 11 38 11c24 0 46 -11 67 -22c16 -8 37 -18 57 -18c10 0 21 4 28 8c10 6 15 16 22 25
l20 -13c-11 -13 -20 -24 -29 -31c-12 -9 -25 -14 -41 -14c-21 0 -42 10 -60 18c-5 2 -16 8 -20 10c-14 8 -28 12 -45 12c-8 0 -17 -1 -23 -5c-10 -6 -18 -16 -26 -29z" />
    <glyph glyph-name="ntilde" unicode="&#xf1;" horiz-adv-x="628" 
d="M109 0h-25v604h31l402 -568h2v568h24v-604h-30l-403 569h-1v-569zM208 672l-19 14c10 14 19 26 31 34s25 11 38 11c24 0 46 -11 67 -22c16 -8 37 -18 57 -18c10 0 21 4 28 8c10 6 15 16 22 25l20 -13c-11 -13 -20 -24 -29 -31c-12 -9 -25 -14 -41 -14
c-21 0 -42 10 -60 18c-5 2 -16 8 -20 10c-14 8 -28 12 -45 12c-8 0 -17 -1 -23 -5c-10 -6 -18 -16 -26 -29z" />
    <glyph glyph-name="otilde" unicode="&#xf5;" horiz-adv-x="698" 
d="M346 620c44 0 83 -10 119 -25c36 -16 69 -40 98 -69c28 -28 49 -63 64 -100c16 -38 24 -80 24 -123c0 -42 -10 -88 -24 -123c-15 -36 -37 -72 -64 -100c-28 -29 -62 -54 -98 -69c-34 -15 -78 -26 -119 -26c-42 0 -83 11 -118 26s-70 41 -97 68c-28 28 -51 64 -66 101
c-14 35 -24 81 -24 123c0 43 8 85 24 123c14 35 38 71 67 100c27 28 61 54 96 69c36 15 75 25 118 25zM545 511c-25 26 -56 46 -90 61s-70 23 -109 23c-38 0 -74 -8 -109 -23c-34 -15 -65 -36 -89 -61c-26 -27 -46 -58 -61 -95c-14 -34 -21 -74 -21 -113
c0 -41 8 -79 22 -114c15 -36 36 -67 61 -94c24 -26 54 -49 88 -63c33 -14 73 -22 109 -22c37 0 76 9 109 22c34 14 63 36 90 63c24 25 45 57 60 94c15 35 22 73 22 114c0 39 -7 79 -22 113c-15 36 -35 69 -60 95zM243 672l-19 14c10 14 19 26 31 34s25 11 38 11
c24 0 46 -11 67 -22c16 -8 37 -18 57 -18c10 0 21 4 28 8c10 6 15 16 22 25l20 -13c-11 -13 -20 -24 -29 -31c-12 -9 -25 -14 -41 -14c-21 0 -42 10 -60 18c-5 2 -16 8 -20 10c-14 8 -28 12 -45 12c-8 0 -17 -1 -23 -5c-10 -6 -18 -16 -26 -29z" />
    <glyph glyph-name="aring" unicode="&#xe5;" 
d="M530 0h-26l-82 198h-315c-24 -60 -58 -138 -84 -198h-28l257 604h28zM116 221h296c-50 120 -95 229 -146 349h-2c-50 -118 -98 -231 -148 -349zM206 698c0 35 28 64 63 64s63 -29 63 -64s-28 -64 -63 -64s-63 29 -63 64zM231 697c0 -22 16 -39 38 -39s39 17 39 39
s-17 39 -39 39s-38 -17 -38 -39z" />
    <glyph glyph-name="Scaron" unicode="&#x160;" horiz-adv-x="489" 
d="M81 457c0 40 16 75 43 98c31 26 74 40 123 40c45 0 87 -15 115 -40c28 -24 42 -58 41 -102h25c1 51 -19 92 -50 121c-34 30 -81 46 -131 46c-55 0 -102 -16 -138 -46c-33 -28 -52 -69 -52 -117c0 -50 24 -84 60 -108c35 -23 87 -36 137 -48c47 -11 97 -25 125 -46
c26 -20 44 -54 44 -97c0 -41 -21 -77 -51 -103c-34 -29 -79 -45 -128 -45s-93 16 -127 45c-30 26 -50 65 -50 108h-25c0 -52 23 -96 60 -128s87 -50 142 -50s105 17 144 50c36 31 59 75 59 123c0 53 -21 91 -53 115c-34 25 -84 41 -135 52c-49 10 -97 24 -129 44
c-31 20 -49 46 -49 88zM135 778h30l78 -100h1l79 100h30l-101 -126h-19z" />
    <glyph glyph-name="Zcaron" unicode="&#x17d;" horiz-adv-x="441" 
d="M18 0v28l364 550v2h-343v24h373v-27l-364 -551v-1h367l1 -25h-398zM107 778h30l78 -100h1l79 100h30l-101 -126h-19z" />
    <glyph glyph-name="Agrave" unicode="&#xc0;" 
d="M530 0h-26l-82 198h-315c-24 -60 -58 -138 -84 -198h-28l257 604h28zM116 221h296c-50 120 -95 229 -146 349h-2c-50 -118 -98 -231 -148 -349zM177 778h33l115 -130h-32z" />
    <glyph glyph-name="Aacute" unicode="&#xc1;" 
d="M530 0h-26l-82 198h-315c-24 -60 -58 -138 -84 -198h-28l257 604h28zM116 221h296c-50 120 -95 229 -146 349h-2c-50 -118 -98 -231 -148 -349zM220 648l115 130h33l-115 -130h-33z" />
    <glyph glyph-name="Acircumflex" unicode="&#xc2;" 
d="M530 0h-26l-82 198h-315c-24 -60 -58 -138 -84 -198h-28l257 604h28zM116 221h296c-50 120 -95 229 -146 349h-2c-50 -118 -98 -231 -148 -349zM348 652l-79 100h-2l-77 -100h-30l98 126h19l101 -126h-30z" />
    <glyph glyph-name="Atilde" unicode="&#xc3;" 
d="M530 0h-26l-82 198h-315c-24 -60 -58 -138 -84 -198h-28l257 604h28zM116 221h296c-50 120 -95 229 -146 349h-2c-50 -118 -98 -231 -148 -349zM160 672l-19 14c10 14 19 26 31 34s25 11 38 11c24 0 46 -11 67 -22c16 -8 37 -18 57 -18c10 0 21 4 28 8c10 6 15 16 22 25
l20 -13c-11 -13 -20 -24 -29 -31c-12 -9 -25 -14 -41 -14c-21 0 -42 10 -60 18c-5 2 -16 8 -20 10c-14 8 -28 12 -45 12c-8 0 -17 -1 -23 -5c-10 -6 -18 -16 -26 -29z" />
    <glyph glyph-name="Adieresis" unicode="&#xc4;" 
d="M530 0h-26l-82 198h-315c-24 -60 -58 -138 -84 -198h-28l257 604h28zM116 221h296c-50 120 -95 229 -146 349h-2c-50 -118 -98 -231 -148 -349zM205 656v73h25v-73h-25zM310 656v73h25v-73h-25z" />
    <glyph glyph-name="Aring" unicode="&#xc5;" 
d="M530 0h-26l-82 198h-315c-24 -60 -58 -138 -84 -198h-28l257 604h28zM116 221h296c-50 120 -95 229 -146 349h-2c-50 -118 -98 -231 -148 -349zM206 698c0 35 28 64 63 64s63 -29 63 -64s-28 -64 -63 -64s-63 29 -63 64zM231 697c0 -22 16 -39 38 -39s39 17 39 39
s-17 39 -39 39s-38 -17 -38 -39z" />
    <glyph glyph-name="Egrave" unicode="&#xc8;" horiz-adv-x="468" 
d="M84 0v604h328v-24h-304v-253h284v-24h-284v-278h308v-25h-332zM156 778h33l115 -130h-32z" />
    <glyph glyph-name="Eacute" unicode="&#xc9;" horiz-adv-x="468" 
d="M84 604v-604h332v25h-308v278h284v24h-284v253h304v24h-328zM193 648l115 130h33l-115 -130h-33z" />
    <glyph glyph-name="Ecircumflex" unicode="&#xca;" horiz-adv-x="468" 
d="M84 604v-604h332v25h-308v278h284v24h-284v253h304v24h-328zM328 652l-79 100h-2l-77 -100h-30l98 126h19l101 -126h-30z" />
    <glyph glyph-name="Edieresis" unicode="&#xcb;" horiz-adv-x="468" 
d="M84 604v-604h332v25h-308v278h284v24h-284v253h304v24h-328zM185 656v73h25v-73h-25zM290 656v73h25v-73h-25z" />
    <glyph glyph-name="Igrave" unicode="&#xcc;" horiz-adv-x="183" 
d="M103 604v-604h-25v604h25zM0 778h33l115 -130h-32z" />
    <glyph glyph-name="Iacute" unicode="&#xcd;" horiz-adv-x="183" 
d="M104 0v604h-25v-604h25zM34 648l115 130h33l-115 -130h-33z" />
    <glyph glyph-name="Icircumflex" unicode="&#xce;" horiz-adv-x="183" 
d="M103 0v604h-25v-604h25zM170 652l-79 100h-2l-77 -100h-30l98 126h19l101 -126h-30z" />
    <glyph glyph-name="Idieresis" unicode="&#xcf;" horiz-adv-x="183" 
d="M103 0v604h-25v-604h25zM26 656v73h25v-73h-25zM131 656v73h25v-73h-25z" />
    <glyph glyph-name="Ntilde" unicode="&#xd1;" horiz-adv-x="628" 
d="M109 0h-25v604h31l402 -568h2v568h24v-604h-30l-403 569h-1v-569zM208 672l-19 14c10 14 19 26 31 34s25 11 38 11c24 0 46 -11 67 -22c16 -8 37 -18 57 -18c10 0 21 4 28 8c10 6 15 16 22 25l20 -13c-11 -13 -20 -24 -29 -31c-12 -9 -25 -14 -41 -14
c-21 0 -42 10 -60 18c-5 2 -16 8 -20 10c-14 8 -28 12 -45 12c-8 0 -17 -1 -23 -5c-10 -6 -18 -16 -26 -29z" />
    <glyph glyph-name="Ograve" unicode="&#xd2;" horiz-adv-x="698" 
d="M346 620c44 0 83 -10 119 -25c36 -16 69 -40 98 -69c28 -28 49 -63 64 -100c16 -38 24 -80 24 -123c0 -42 -10 -88 -24 -123c-15 -36 -37 -72 -64 -100c-28 -29 -62 -54 -98 -69c-34 -15 -78 -26 -119 -26c-42 0 -83 11 -118 26s-70 41 -97 68c-28 28 -51 64 -66 101
c-14 35 -24 81 -24 123c0 43 8 85 24 123c14 35 38 71 67 100c27 28 61 54 96 69c36 15 75 25 118 25zM545 511c-25 26 -56 46 -90 61s-70 23 -109 23c-38 0 -74 -8 -109 -23c-34 -15 -65 -36 -89 -61c-26 -27 -46 -58 -61 -95c-14 -34 -21 -74 -21 -113
c0 -41 8 -79 22 -114c15 -36 36 -67 61 -94c24 -26 54 -49 88 -63c33 -14 73 -22 109 -22c37 0 76 9 109 22c34 14 63 36 90 63c24 25 45 57 60 94c15 35 22 73 22 114c0 39 -7 79 -22 113c-15 36 -35 69 -60 95zM255 778h33l115 -130h-32z" />
    <glyph glyph-name="Oacute" unicode="&#xd3;" horiz-adv-x="698" 
d="M346 620c44 0 83 -10 119 -25c36 -16 69 -40 98 -69c28 -28 49 -63 64 -100c16 -38 24 -80 24 -123c0 -42 -10 -88 -24 -123c-15 -36 -37 -72 -64 -100c-28 -29 -62 -54 -98 -69c-34 -15 -78 -26 -119 -26c-42 0 -83 11 -118 26s-70 41 -97 68c-28 28 -51 64 -66 101
c-14 35 -24 81 -24 123c0 43 8 85 24 123c14 35 38 71 67 100c27 28 61 54 96 69c36 15 75 25 118 25zM545 511c-25 26 -56 46 -90 61s-70 23 -109 23c-38 0 -74 -8 -109 -23c-34 -15 -65 -36 -89 -61c-26 -27 -46 -58 -61 -95c-14 -34 -21 -74 -21 -113
c0 -41 8 -79 22 -114c15 -36 36 -67 61 -94c24 -26 54 -49 88 -63c33 -14 73 -22 109 -22c37 0 76 9 109 22c34 14 63 36 90 63c24 25 45 57 60 94c15 35 22 73 22 114c0 39 -7 79 -22 113c-15 36 -35 69 -60 95zM292 648l115 130h33l-115 -130h-33z" />
    <glyph glyph-name="Ocircumflex" unicode="&#xd4;" horiz-adv-x="698" 
d="M346 620c44 0 83 -10 119 -25c36 -16 69 -40 98 -69c28 -28 49 -63 64 -100c16 -38 24 -80 24 -123c0 -42 -10 -88 -24 -123c-15 -36 -37 -72 -64 -100c-28 -29 -62 -54 -98 -69c-34 -15 -78 -26 -119 -26c-42 0 -83 11 -118 26s-70 41 -97 68c-28 28 -51 64 -66 101
c-14 35 -24 81 -24 123c0 43 8 85 24 123c14 35 38 71 67 100c27 28 61 54 96 69c36 15 75 25 118 25zM545 511c-25 26 -56 46 -90 61s-70 23 -109 23c-38 0 -74 -8 -109 -23c-34 -15 -65 -36 -89 -61c-26 -27 -46 -58 -61 -95c-14 -34 -21 -74 -21 -113
c0 -41 8 -79 22 -114c15 -36 36 -67 61 -94c24 -26 54 -49 88 -63c33 -14 73 -22 109 -22c37 0 76 9 109 22c34 14 63 36 90 63c24 25 45 57 60 94c15 35 22 73 22 114c0 39 -7 79 -22 113c-15 36 -35 69 -60 95zM428 652l-79 100h-2l-77 -100h-30l98 126h19l101 -126h-30z
" />
    <glyph glyph-name="Otilde" unicode="&#xd5;" horiz-adv-x="698" 
d="M346 620c44 0 83 -10 119 -25c36 -16 69 -40 98 -69c28 -28 49 -63 64 -100c16 -38 24 -80 24 -123c0 -42 -10 -88 -24 -123c-15 -36 -37 -72 -64 -100c-28 -29 -62 -54 -98 -69c-34 -15 -78 -26 -119 -26c-42 0 -83 11 -118 26s-70 41 -97 68c-28 28 -51 64 -66 101
c-14 35 -24 81 -24 123c0 43 8 85 24 123c14 35 38 71 67 100c27 28 61 54 96 69c36 15 75 25 118 25zM545 511c-25 26 -56 46 -90 61s-70 23 -109 23c-38 0 -74 -8 -109 -23c-34 -15 -65 -36 -89 -61c-26 -27 -46 -58 -61 -95c-14 -34 -21 -74 -21 -113
c0 -41 8 -79 22 -114c15 -36 36 -67 61 -94c24 -26 54 -49 88 -63c33 -14 73 -22 109 -22c37 0 76 9 109 22c34 14 63 36 90 63c24 25 45 57 60 94c15 35 22 73 22 114c0 39 -7 79 -22 113c-15 36 -35 69 -60 95zM243 672l-19 14c10 14 19 26 31 34s25 11 38 11
c24 0 46 -11 67 -22c16 -8 37 -18 57 -18c10 0 21 4 28 8c10 6 15 16 22 25l20 -13c-11 -13 -20 -24 -29 -31c-12 -9 -25 -14 -41 -14c-21 0 -42 10 -60 18c-5 2 -16 8 -20 10c-14 8 -28 12 -45 12c-8 0 -17 -1 -23 -5c-10 -6 -18 -16 -26 -29z" />
    <glyph glyph-name="Odieresis" unicode="&#xd6;" horiz-adv-x="698" 
d="M346 620c44 0 83 -10 119 -25c36 -16 69 -40 98 -69c28 -28 49 -63 64 -100c16 -38 24 -80 24 -123c0 -42 -10 -88 -24 -123c-15 -36 -37 -72 -64 -100c-28 -29 -62 -54 -98 -69c-34 -15 -78 -26 -119 -26c-42 0 -83 11 -118 26s-70 41 -97 68c-28 28 -51 64 -66 101
c-14 35 -24 81 -24 123c0 43 8 85 24 123c14 35 38 71 67 100c27 28 61 54 96 69c36 15 75 25 118 25zM545 511c-25 26 -56 46 -90 61s-70 23 -109 23c-38 0 -74 -8 -109 -23c-34 -15 -65 -36 -89 -61c-26 -27 -46 -58 -61 -95c-14 -34 -21 -74 -21 -113
c0 -41 8 -79 22 -114c15 -36 36 -67 61 -94c24 -26 54 -49 88 -63c33 -14 73 -22 109 -22c37 0 76 9 109 22c34 14 63 36 90 63c24 25 45 57 60 94c15 35 22 73 22 114c0 39 -7 79 -22 113c-15 36 -35 69 -60 95zM284 656v73h25v-73h-25zM389 656v73h25v-73h-25z" />
    <glyph glyph-name="Ugrave" unicode="&#xd9;" horiz-adv-x="536" 
d="M435 604h23v-419c0 -29 -5 -55 -14 -79c-10 -24 -25 -45 -41 -63c-16 -17 -39 -33 -61 -43s-49 -16 -74 -16c-28 0 -52 5 -75 16c-23 10 -43 24 -61 42c-17 18 -31 40 -40 64s-15 50 -15 79v419h24v-419c0 -25 4 -48 13 -70c8 -18 23 -42 36 -55c16 -17 33 -29 53 -37
c20 -9 41 -15 65 -15c23 0 45 5 65 15c19 8 37 20 52 36c14 15 28 36 36 56c9 23 14 45 14 70v419zM173 778h33l115 -130h-32z" />
    <glyph glyph-name="Uacute" unicode="&#xda;" horiz-adv-x="536" 
d="M435 604h23v-419c0 -29 -5 -55 -14 -79c-10 -24 -25 -45 -41 -63c-16 -17 -39 -33 -61 -43s-49 -16 -74 -16c-28 0 -52 5 -75 16c-23 10 -43 24 -61 42c-17 18 -31 40 -40 64s-15 50 -15 79v419h24v-419c0 -25 4 -48 13 -70c8 -18 23 -42 36 -55c16 -17 33 -29 53 -37
c20 -9 41 -15 65 -15c23 0 45 5 65 15c19 8 37 20 52 36c14 15 28 36 36 56c9 23 14 45 14 70v419zM212 648l115 130h33l-115 -130h-33z" />
    <glyph glyph-name="Ucircumflex" unicode="&#xdb;" horiz-adv-x="536" 
d="M435 604h23v-419c0 -29 -5 -55 -14 -79c-10 -24 -25 -45 -41 -63c-16 -17 -39 -33 -61 -43s-49 -16 -74 -16c-28 0 -52 5 -75 16c-23 10 -43 24 -61 42c-17 18 -31 40 -40 64s-15 50 -15 79v419h24v-419c0 -25 4 -48 13 -70c8 -18 23 -42 36 -55c16 -17 33 -29 53 -37
c20 -9 41 -15 65 -15c23 0 45 5 65 15c19 8 37 20 52 36c14 15 28 36 36 56c9 23 14 45 14 70v419zM347 652l-79 100h-2l-77 -100h-30l98 126h19l101 -126h-30z" />
    <glyph glyph-name="Udieresis" unicode="&#xdc;" horiz-adv-x="536" 
d="M435 604h23v-419c0 -29 -5 -55 -14 -79c-10 -24 -25 -45 -41 -63c-16 -17 -39 -33 -61 -43s-49 -16 -74 -16c-28 0 -52 5 -75 16c-23 10 -43 24 -61 42c-17 18 -31 40 -40 64s-15 50 -15 79v419h24v-419c0 -25 4 -48 13 -70c8 -18 23 -42 36 -55c16 -17 33 -29 53 -37
c20 -9 41 -15 65 -15c23 0 45 5 65 15c19 8 37 20 52 36c14 15 28 36 36 56c9 23 14 45 14 70v419zM201 656v73h25v-73h-25zM306 656v73h25v-73h-25z" />
    <glyph glyph-name="Yacute" unicode="&#xdd;" horiz-adv-x="427" 
d="M225 0h-24v256l-201 348h29l184 -321h1l184 321h29l-202 -348v-256zM156 648l115 130h33l-115 -130h-33z" />
    <glyph glyph-name="dollar" unicode="$" horiz-adv-x="500" 
d="M243 -56v41c-52 2 -99 19 -134 50c-37 32 -60 76 -60 128h25c0 -43 20 -82 50 -108c32 -28 73 -44 119 -45v295c-45 11 -88 23 -119 44c-36 24 -60 58 -60 108c0 48 19 89 52 117s77 44 127 46v40h25v-41c44 -2 86 -18 117 -45c31 -29 51 -70 50 -121h-25
c1 44 -13 78 -41 102c-25 22 -62 36 -101 39v-270c50 -11 99 -27 133 -51c32 -24 53 -62 53 -115c0 -48 -23 -92 -59 -123c-35 -30 -79 -46 -127 -49v-42h-25zM386 255c-27 20 -73 34 -118 44v-289c42 4 81 19 111 45s51 62 51 103c0 43 -18 77 -44 97zM88 457
c0 -42 18 -68 49 -88c27 -17 65 -30 106 -39v265c-45 -2 -84 -16 -112 -40c-27 -23 -43 -58 -43 -98z" />
    <glyph glyph-name="nbspace" unicode="&#xa0;" horiz-adv-x="283" 
 />
    <glyph glyph-name="Ydieresis" unicode="&#x178;" horiz-adv-x="427" 
d="M225 0h-24v256l-201 348h29l184 -321h1l184 321h29l-202 -348v-256zM149 656v73h25v-73h-25zM254 656v73h25v-73h-25z" />
    <glyph glyph-name="exclam" unicode="!" horiz-adv-x="197" 
d="M86 0v72h25v-72h-25zM86 143v461h25v-461h-25z" />
    <glyph glyph-name="quotedbl" unicode="&#x22;" horiz-adv-x="258" 
d="M71 395v209h25v-209h-25zM163 395v209h24v-209h-24z" />
    <glyph glyph-name="numbersign" unicode="#" horiz-adv-x="508" 
d="M145 0h-24l28 211h-104v23h108c5 43 13 87 19 131h-103v24h106c9 70 19 144 28 215h25l-28 -215h138c8 70 18 144 27 215h26l-29 -215h101v-24h-105c-6 -42 -13 -89 -19 -131h101v-23h-104c-9 -69 -20 -142 -29 -211h-24l28 211h-138c-9 -69 -19 -142 -28 -211zM335 365
h-141c-6 -44 -10 -87 -16 -131h137c6 43 14 87 20 131z" />
    <glyph glyph-name="dagger" unicode="&#x2020;" horiz-adv-x="373" 
d="M197 -60h-24v527h-135v24h135v174h24v-174h135v-24h-135v-527z" />
    <glyph glyph-name="daggerdbl" unicode="&#x2021;" horiz-adv-x="381" 
d="M201 -60h-24v174h-135v24h135v329h-135v24h135v174h24v-174h135v-24h-135v-329h135v-24h-135v-174z" />
    <glyph glyph-name="logicalnot" unicode="&#xac;" horiz-adv-x="545" 
d="M450 122v136h-359v23h383v-159h-24z" />
    <glyph glyph-name="plusminus" unicode="&#xb1;" horiz-adv-x="553" 
d="M262 418h25v-162h196v-24h-196v-162h-25v162h-197v24h197v162zM70 34h408v-23h-408v23z" />
    <glyph glyph-name="periodcentered" unicode="&#xb7;" horiz-adv-x="157" 
d="M66 185v72h24v-72h-24z" />
    <glyph glyph-name="germandbls" unicode="&#xdf;" horiz-adv-x="978" 
d="M81 457c0 -42 18 -68 49 -88c32 -20 80 -34 129 -44c51 -11 101 -27 135 -52c32 -24 53 -62 53 -115c0 -48 -23 -92 -59 -123c-39 -33 -89 -50 -144 -50s-105 18 -142 50s-60 76 -60 128h25c0 -43 20 -82 50 -108c34 -29 78 -45 127 -45s94 16 128 45c30 26 51 62 51 103
c0 43 -18 77 -44 97c-28 21 -78 35 -125 46c-50 12 -102 25 -137 48c-36 24 -60 58 -60 108c0 48 19 89 52 117c36 30 83 46 138 46c50 0 97 -16 131 -46c31 -29 51 -70 50 -121h-25c1 44 -13 78 -41 102c-28 25 -70 40 -115 40c-49 0 -92 -14 -123 -40
c-27 -23 -43 -58 -43 -98zM570 457c0 -42 18 -68 49 -88c32 -20 80 -34 129 -44c51 -11 101 -27 135 -52c32 -24 53 -62 53 -115c0 -48 -23 -92 -59 -123c-39 -33 -89 -50 -144 -50s-105 18 -142 50s-60 76 -60 128h25c0 -43 20 -82 50 -108c34 -29 78 -45 127 -45
s94 16 128 45c30 26 51 62 51 103c0 43 -18 77 -44 97c-28 21 -78 35 -125 46c-50 12 -102 25 -137 48c-36 24 -60 58 -60 108c0 48 19 89 52 117c36 30 83 46 138 46c50 0 97 -16 131 -46c31 -29 51 -70 50 -121h-25c1 44 -13 78 -41 102c-28 25 -70 40 -115 40
c-49 0 -92 -14 -123 -40c-27 -23 -43 -58 -43 -98z" />
    <glyph glyph-name="Ccedilla" unicode="&#xc7;" horiz-adv-x="658" 
d="M69 303c0 -41 7 -79 21 -114c15 -36 36 -67 61 -94c24 -26 54 -49 89 -63c33 -14 73 -22 109 -22s76 9 109 22c34 14 63 36 90 63c15 15 29 36 43 58h27c-16 -30 -36 -56 -53 -73c-28 -28 -62 -54 -97 -69c-34 -15 -77 -25 -117 -26l-10 -24l1 -1c5 1 11 1 14 -1
c35 -14 35 -42 35 -55c0 -18 -9 -63 -61 -63c-48 0 -57 30 -63 57h25c5 -17 8 -34 38 -34c11 0 38 5 38 40c0 13 -18 46 -44 32l-16 15l16 35c-34 4 -66 13 -93 25c-35 15 -70 41 -97 68c-28 28 -52 64 -66 101c-14 35 -24 81 -24 123c0 43 9 85 24 123c14 35 38 71 67 100
c27 28 61 54 96 69s75 25 118 25c44 0 83 -9 119 -25c35 -15 68 -40 97 -70c8 -8 40 -47 51 -75h-23c-14 22 -29 44 -45 61c-25 26 -56 46 -90 61s-71 23 -109 23s-74 -8 -109 -23s-65 -36 -89 -61c-26 -27 -46 -58 -61 -95c-14 -34 -21 -74 -21 -113z" />
    </font>
</defs>
</svg>
