<?xml version="1.0" standalone="no"?>
<!DOCTYPE svg PUBLIC "-//W3C//DTD SVG 1.1//EN" "http://www.w3.org/Graphics/SVG/1.1/DTD/svg11.dtd" >
<svg xmlns="http://www.w3.org/2000/svg" xmlns:xlink="http://www.w3.org/1999/xlink" version="1.1">
<metadata>
Created by FontForge 20141024 at Sat Apr 11 23:15:16 2015
 By System Administrator
Copyright (c) 1988, 1991, 2003 Linotype Library GmbH, www.linotype.com. All rights reserved. This software may not be reproduced, used, displayed, modified, disclosed or transferred without the express written approval of Linotype Library GmbH. Linotype Didot is a trademark of Heidelberger Druckmaschinen AG which may be registered in certain jurisdictions, exclusively licensed through Linotype Library GmbH, a wholly owned subsidiary of Heidelberger Druckmaschinen AG. This typeface is original artwork of Linotype Design Studio / Adrian Frutiger. The design may be protected in certain jurisdictions. Copyright (c) Adobe Systems Incorporated. All rights reserved.
</metadata>
<defs>
<font id="DidotLH-HeadlineOsF" horiz-adv-x="1214" >
  <font-face 
    font-family="Didot LH HeadlineOsF"
    font-weight="400"
    font-stretch="normal"
    units-per-em="2048"
    panose-1="2 2 5 0 0 0 0 0 0 0"
    ascent="1638"
    descent="-410"
    x-height="893"
    cap-height="1458"
    bbox="-328 -643 2427 1941.01"
    underline-thickness="102"
    underline-position="-154"
    unicode-range="U+0020-F002"
  />
<missing-glyph horiz-adv-x="0" 
 />
    <glyph glyph-name=".notdef" horiz-adv-x="0" 
 />
    <glyph glyph-name=".null" horiz-adv-x="0" 
 />
    <glyph glyph-name="nonmarkingreturn" unicode="&#xad;" horiz-adv-x="758" 
d="M188 524h381v-151h-381v151z" />
    <glyph glyph-name="space" unicode=" " horiz-adv-x="530" 
 />
    <glyph glyph-name="exclam" unicode="!" horiz-adv-x="606" 
d="M289 360l-90 981q-1 17 -1.5 31t-0.5 25q0 57 39 80q34 18 67 18q32 0 70 -18q16 -13 26 -31q11 -20 11 -49q0 -11 -0.5 -25t-1.5 -31l-91 -981h-28zM182 98q0 54 37 88q33 33 84 33q53 0 88 -33q33 -35 33 -88q0 -51 -33 -84q-34 -34 -88 -37q-53 3 -84 37
q-37 34 -37 84z" />
    <glyph glyph-name="quotedbl" unicode="&#x22;" horiz-adv-x="909" 
d="M350 913h-51l-39 422q-4 39 -6 72t-2 61q0 23 16 39q15 15 58 15t57 -15q14 -17 14 -39q0 -28 -2 -61t-6 -72zM610 913h-51l-39 422q-4 39 -6 72t-2 61q0 23 16 39q15 15 58 15t57 -15q14 -17 14 -39q0 -28 -2 -61t-6 -72z" />
    <glyph glyph-name="numbersign" unicode="#" horiz-adv-x="1139" 
d="M307 485l-176 -485h-43l176 485h-272l14 37h273l147 406h-272l14 37h272l178 493h43l-178 -493h346l179 493h43l-179 -493h273l-15 -37h-272l-147 -406h272l-14 -37h-273l-176 -485h-43l176 485h-346zM469 928l-147 -406h346l147 406h-346z" />
    <glyph glyph-name="dollar" unicode="$" horiz-adv-x="1366" 
d="M162 436h16q17 -81 41 -143t53 -107q60 -90 129 -131q70 -40 136 -51q63 -11 108 -12v669q-32 10 -66 20.5t-69 22.5q-76 23 -123 46q-83 40 -139 116q-60 73 -60 189q-2 151 111 282q110 126 346 137v117h29v-117q20 -1 40 -3t42 -5q39 -8 90 -33q97 -41 114 -36
q33 0 48 18q14 14 18 31h16v-373h-16q-1 11 -3 25.5t-5 31.5q-4 16 -10.5 34t-14.5 38q-31 80 -108 160q-60 59 -115 76q-61 14 -96 14v-582q154 -37 229 -63q76 -25 127 -64q162 -112 164 -303q0 -125 -72 -239q-72 -117 -205 -181q-32 -16 -63.5 -25t-60.5 -13
q-31 -5 -60.5 -8.5t-58.5 -4.5v-145h-29v145q-23 0 -49 2t-55 6q-31 4 -66.5 11t-75.5 18q-113 43 -153 41q-33 0 -47 -14q-15 -17 -21 -33h-16v436zM645 1452q-172 -2 -262 -80q-94 -79 -94 -194q0 -101 80 -179q75 -74 276 -120v573zM674 -8q20 1 42.5 3.5t47.5 6.5
q23 4 48.5 11t53.5 18q90 40 135 123q45 76 45 172q0 87 -28 139q-25 53 -80 88q-49 37 -119 59q-34 11 -70 21t-75 20v-661z" />
    <glyph glyph-name="percent" unicode="%" horiz-adv-x="1593" 
d="M1157 1474l37 -16l-770 -1489l-37 17zM967 307q-2 -158 34 -235q38 -80 146 -80q107 0 145 80q35 82 35 235q0 30 -0.5 58.5t-1.5 56.5q-2 57 -21 100q-17 48 -53 74q-39 24 -104 24q-64 0 -101 -24q-33 -26 -53 -74q-18 -43 -20 -100q-6 -56 -6 -115zM266 1139
q-1 -78 7.5 -137t27.5 -99q38 -80 145 -80q108 0 146 80q35 82 35 236q0 29 -0.5 57.5t-1.5 56.5q-2 58 -21 101q-16 48 -53 73t-105 25q-63 0 -100 -25q-35 -26 -53 -73q-19 -43 -21 -101q-6 -56 -6 -114zM821 307q1 153 103 244q96 90 223 92q129 -2 225 -92
q99 -91 100 -244q-2 -152 -98 -244q-97 -93 -227 -94q-128 2 -223 94q-102 94 -103 244zM121 1139q1 153 102 243q96 90 223 92q130 -2 226 -92q98 -91 100 -243q-2 -152 -98 -244q-97 -94 -228 -94q-129 0 -223 94q-101 92 -102 244z" />
    <glyph glyph-name="ampersand" unicode="&#x26;" horiz-adv-x="1403" 
d="M1040 319q95 152 95 426q2 99 -31 166q-35 71 -133 72h-29v22h385v-22q-71 2 -113 -35q-22 -19 -34 -65q-15 -45 -21 -121q-5 -176 -27 -275q-22 -102 -81 -194l26 -66q51 -123 88 -151q31 -27 51 -25q40 0 60 41q18 39 18 88q-1 16 -1.5 29t-0.5 24h23q2 -10 3 -23
t1 -30q0 -86 -51 -149q-27 -31 -70 -49q-45 -20 -106 -21q-99 2 -146 43q-48 37 -72 76q-49 -37 -131 -76q-42 -20 -90.5 -31t-105.5 -12q-203 4 -322 162q-121 151 -123 352q0 13 1 26t3 27t5.5 29t7.5 31q5 17 11 34t13 33q8 17 17.5 34t19.5 34q45 70 129 129
q42 29 94.5 53t118.5 41q-13 48 -21.5 86.5t-13.5 69.5q-4 29 -6 50.5t-2 37.5q2 127 78 215q73 88 180 90q84 -2 133 -59q47 -62 47 -158q0 -89 -41 -148q-22 -29 -52 -57.5t-68 -54.5zM324 702q0 -108 45 -229q9 -29 19.5 -57.5t21.5 -57.5q11 -28 21.5 -53.5t21.5 -48.5
q109 -229 231 -229q51 0 94 22q40 19 88 51q-103 215 -187 420.5t-151 405.5q-112 -28 -157 -84q-47 -56 -47 -140zM676 1337q0 -73 26 -153q11 -39 22.5 -74.5t22.5 -67.5q72 45 111 99q37 52 37 131q0 46 -23 112q-24 66 -100 70q-51 0 -72 -33q-24 -35 -24 -84z" />
    <glyph glyph-name="quotesingle" unicode="'" horiz-adv-x="530" 
d="M291 913h-51l-39 422q-9 78 -9 133q0 22 17 39q13 15 57 15q43 0 58 -15q14 -17 14 -39q0 -28 -2 -61t-6 -72z" />
    <glyph glyph-name="parenleft" unicode="(" horiz-adv-x="569" 
d="M516 1487q-20 -31 -44 -69.5t-50 -84.5q-53 -91 -109 -223q-58 -130 -88.5 -292.5t-32.5 -366.5q5 -404 121 -656q54 -125 109 -221q26 -48 50 -87.5t44 -72.5l-31 -20q-47 69 -102 168q-28 49 -55 105t-54 120q-60 130 -90 294t-32 370q2 208 32 371.5t90 293.5
q54 130 109 227q28 49 53.5 89.5t48.5 74.5z" />
    <glyph glyph-name="parenright" unicode=")" horiz-adv-x="569" 
d="M84 1507q23 -34 50 -74.5t56 -89.5q28 -49 55.5 -105t53.5 -122q58 -129 87.5 -294t31.5 -371q-4 -408 -119 -664q-26 -64 -53.5 -120t-55.5 -105q-29 -51 -56 -92t-50 -76l-31 20q23 33 48 72.5t53 87.5q29 48 55 103t51 118q112 252 117 656q-5 403 -117 659
q-25 66 -51.5 121t-54.5 102q-29 47 -54 85t-47 69z" />
    <glyph glyph-name="asterisk" unicode="*" horiz-adv-x="909" 
d="M461 1081q37 27 96 78q28 23 51 47.5t43 50.5q15 27 33 45q20 17 51 17q38 0 64 -23q22 -22 22 -63q-1 -55 -39 -70q-35 -16 -67 -16q-33 -4 -66 -12t-65 -19q-62 -22 -115 -45q20 -8 48 -18t63 -23q33 -14 66.5 -22.5t68.5 -12.5q30 1 67 -12q37 -16 39 -74
q0 -37 -22 -59q-26 -27 -64 -27q-28 0 -47 19q-10 8 -19.5 18t-17.5 23q-41 58 -94 102q-29 23 -52.5 41.5t-43.5 32.5q3 -20 8 -48.5t12 -66.5q13 -78 39 -137q21 -38 21 -62q0 -34 -23 -57q-24 -27 -63 -27q-36 0 -58 27q-26 23 -26 57q0 24 20 62q14 29 24 60t17 63
q6 32 10 64.5t6 64.5q-18 -13 -41 -31t-51 -41t-52 -49t-44 -55q-14 -23 -33 -39q-20 -21 -53 -21q-35 0 -59 27q-27 24 -27 59q2 58 41 74q34 13 66 12q73 7 139 33q34 11 61 22t47 21q-149 72 -270 78q-46 6 -66 35q-19 28 -18 49q0 39 27 63q26 23 59 23t53 -17
q19 -18 33 -45q19 -26 43 -51.5t53 -48.5q28 -23 51 -42.5t41 -33.5q-1 20 -4.5 49.5t-9.5 67.5q-7 38 -18 72t-25 63q-20 42 -20 64q0 32 26 61q23 23 58 23q37 0 63 -23q23 -29 23 -61q0 -25 -21 -64q-25 -55 -39 -121q-6 -32 -11 -65t-9 -66z" />
    <glyph glyph-name="plus" unicode="+" 
d="M586 0v473h-471v37h471v473h41v-473h471v-37h-471v-473h-41z" />
    <glyph glyph-name="comma" unicode="," horiz-adv-x="530" 
d="M162 -360q125 104 164 174q31 67 30 112q0 42 -10 62q-10 18 -22 35q-18 -19 -33 -29q-23 -17 -58 -17q-51 0 -86 35q-38 33 -38 88q2 66 49 97q43 30 92 30q69 0 119 -51q50 -53 51 -151q0 -79 -25 -138q-23 -62 -63 -116q-42 -52 -80 -89.5t-72 -62.5z" />
    <glyph glyph-name="hyphen" unicode="-" horiz-adv-x="758" 
d="M188 524h381v-151h-381v151z" />
    <glyph glyph-name="period" unicode="." horiz-adv-x="530" 
d="M143 98q0 54 37 88q33 33 84 33q53 0 88 -33q33 -35 33 -88q0 -51 -33 -84q-34 -34 -88 -37q-53 3 -84 37q-37 33 -37 84z" />
    <glyph glyph-name="slash" unicode="/" horiz-adv-x="606" 
d="M559 1470l41 -12l-553 -1470l-41 12z" />
    <glyph glyph-name="zero" unicode="0" horiz-adv-x="1063" 
d="M532 -31q-176 2 -305 129q-133 128 -137 336q4 209 141 334q132 123 306 125q182 -2 307 -131q127 -128 131 -332q-4 -211 -142 -334q-134 -125 -301 -127zM534 -8q94 1 150 39q53 35 80 98q26 69 35 147q2 42 3 84.5t1 87.5q0 38 -1 75.5t-3 74.5q-6 75 -31 135
q-22 64 -78 100q-58 35 -151 37q-97 0 -152 -37q-57 -36 -84 -100q-27 -61 -33 -139q-4 -39 -6 -78.5t-2 -81.5q-1 -221 55 -332q56 -110 217 -110z" />
    <glyph glyph-name="one" unicode="1" horiz-adv-x="682" 
d="M244 833h-152v23h496v-23h-152v-810h152v-23h-496v23h152v810z" />
    <glyph glyph-name="two" unicode="2" horiz-adv-x="909" 
d="M823 176v-176h-805v23q107 0 220 24q111 26 200 119q13 13 24.5 28.5t22.5 34.5q10 17 18.5 37t16.5 43q33 88 33 225q0 153 -41 246q-47 88 -162 90q-43 0 -78 -16q-39 -21 -39 -70q2 -23 5.5 -44.5t7.5 -43.5q1 -45 -80 -45q-7 -1 -19.5 1t-29.5 7q-15 7 -27 19
q-14 12 -14 33q0 26 16 57q8 16 20.5 30.5t28.5 28.5q35 29 86 47q47 19 119 19q178 -2 289 -107q110 -106 112 -258q0 -90 -40 -163q-41 -74 -105 -132q-134 -113 -258 -165l4 -7h346q45 -2 74 15q29 18 33 100h22z" />
    <glyph glyph-name="three" unicode="3" horiz-adv-x="833" 
d="M131 727q26 23 51.5 41t48.5 31q23 11 49.5 22.5t57.5 24.5q11 5 23.5 12.5t25.5 17.5q23 20 41 54q8 18 16 41.5t15 52.5q4 29 6 65.5t2 81.5q0 26 -0.5 51t-1.5 50q-2 24 -6 49q-5 20 -15 41q-26 89 -122 90q-78 -2 -78 -55q0 -11 8 -33q8 -26 8 -35q-2 -53 -82 -53
q-22 -2 -45 8q-33 7 -35 45q0 49 66 96q59 47 160 49q114 0 215 -77q101 -80 102 -236q2 -87 -49 -166q-59 -83 -225 -162q156 -18 266 -131q110 -116 112 -297q0 -166 -112 -296q-113 -136 -320 -140q-83 0 -147 23q-62 20 -100 49q-76 64 -76 104q0 29 26 50q26 20 76 20
q38 0 62 -10q26 -14 26 -43q0 -16 -4 -31q-8 -21 -8 -37q0 -42 41 -71t113 -31q75 0 112 28t53 72q47 105 52 379q0 157 -37 246q-39 93 -142 94q-72 -2 -129 -41q-29 -19 -50 -34.5t-32 -28.5z" />
    <glyph glyph-name="four" unicode="4" horiz-adv-x="909" 
d="M666 61h153v-61h-153v-127h-193v127h-440l587 1272q13 29 29 49q16 16 49 16h115q6 0 13.5 -0.5t15.5 -1.5q14 -6 14 -26q0 -18 -16 -43l-762 -1205h395v328q92 14 133 74q19 28 31.5 55t17.5 53h11v-510z" />
    <glyph glyph-name="five" unicode="5" horiz-adv-x="909" 
d="M256 1464q13 -11 28.5 -22.5t34.5 -24.5q40 -27 97 -27q48 0 80 21q16 8 27 16t18 15q56 53 102 53q34 0 57 -23t23 -53q0 -35 -39 -90q-11 -13 -25.5 -24t-33.5 -19q-42 -20 -99 -20q-99 0 -157 43q-30 20 -57 45.5t-52 54.5l-24 -700q20 34 67 75q46 41 135 43
q144 -2 264 -110q123 -111 127 -316q-2 -192 -129 -309q-125 -122 -317 -123q-175 2 -256 74q-84 67 -84 133q1 56 100 55q14 0 29.5 -2t34.5 -6q39 -10 41 -53q0 -10 -6 -41q-9 -32 -9 -43q3 -53 56 -74q49 -20 94 -20q50 0 98 20q43 19 74 64q63 87 65 334q0 196 -34 297
q-39 98 -156 98q-101 -2 -147 -68q-47 -65 -50 -123l-2 -63h-28l33 913h20z" />
    <glyph glyph-name="six" unicode="6" horiz-adv-x="1063" 
d="M123 588q10 467 184 686q76 112 156 157q76 43 164 43q112 -1 178 -51q63 -51 63 -112q-2 -52 -37 -62q-32 -12 -53 -10q-33 -1 -67 12q-39 10 -41 49q2 22 4.5 43t5.5 41q-2 38 -29 52q-26 10 -59 10q-47 0 -82 -23t-59 -57q-43 -76 -60 -154q-5 -16 -13.5 -59
t-21.5 -113q-24 -140 -30 -354q5 8 12 18t16 23q14 20 41 45q26 25 66 41q40 14 86 14q163 -2 282 -129q119 -125 121 -309q-1 -166 -123 -289q-119 -127 -297 -131q-190 4 -297 176q-110 170 -110 443zM313 442q0 -17 3 -54t8 -97q3 -26 7 -53t9 -54q5 -26 11 -49t14 -43
q20 -45 59 -72q34 -28 106 -28q74 2 115 31q43 28 64 71q10 23 17 49t11 54q2 26 3 53t1 55q-2 122 -17.5 219t-43.5 170q-10 37 -43 74q-34 36 -98 37q-67 -2 -111 -37q-43 -34 -61 -66q-17 -28 -28 -57t-15 -61q-5 -32 -8 -67.5t-3 -74.5z" />
    <glyph glyph-name="seven" unicode="7" horiz-adv-x="833" 
d="M84 856h719l-545 -1464h-168q76 159 172.5 346.5t214.5 413.5q137 259 234 526h-441q-70 1 -110 -31q-21 -18 -33 -51q-13 -33 -21 -92h-22v352z" />
    <glyph glyph-name="eight" unicode="8" horiz-adv-x="1063" 
d="M92 369q-2 115 68 202q67 88 241 168q-95 75 -149 154q-64 82 -64 199q2 155 107 266q100 114 248 116q125 0 241 -86q118 -86 123 -258q0 -89 -53 -163q-57 -73 -197 -162q61 -35 114 -75.5t101 -86.5q44 -47 72 -109q25 -60 25 -147q-2 -176 -125 -295
q-123 -122 -322 -123q-188 4 -305 121q-123 112 -125 279zM270 348q-2 -141 52 -244q28 -51 79 -79q52 -31 131 -33q127 1 213 69q84 68 86 197q0 67 -20 125q-18 53 -51 92q-34 38 -64.5 64.5t-56.5 42.5q-55 35 -111 72l-112 75q-22 -17 -49 -45q-26 -29 -48 -70
q-47 -77 -49 -266zM326 1247q0 -86 32 -153q32 -70 78 -119q23 -26 49 -48t54 -42q52 -39 102 -72q45 34 76 92q28 55 28 191q0 32 -2 65t-6 68q-5 35 -13.5 65t-21.5 56q-22 49 -61 77q-37 25 -102 25q-84 0 -146 -47q-66 -52 -67 -158z" />
    <glyph glyph-name="nine" unicode="9" horiz-adv-x="1063" 
d="M948 297q-10 -477 -203 -721q-81 -117 -161 -156q-80 -36 -154 -36q-122 2 -182 59q-66 52 -66 111q0 28 17 43q12 12 30 18q20 5 35 7t23 1q32 2 61 -10q32 -14 33 -53q0 -7 -1 -17.5t-3 -25.5q-4 -16 -6 -26.5t-2 -16.5q0 -35 32 -47q31 -15 60 -15q48 2 86 25
q17 11 31 24.5t24 30.5q23 37 38.5 73.5t23.5 74.5q4 10 9 26t11 39q5 23 10.5 51t12.5 62q13 69 21.5 155.5t12.5 194.5q-14 -33 -65 -80q-29 -23 -64 -39q-39 -18 -88 -18q-154 1 -272 127q-125 118 -127 293q2 187 125 313q119 128 299 129q196 -5 299 -174
q100 -169 100 -422zM760 412q0 270 -47 370q-26 51 -66 72q-36 16 -98 16q-133 -2 -176 -98q-41 -98 -39 -252q0 -80 12 -180q4 -48 12.5 -90.5t22.5 -79.5q16 -41 51 -78q33 -39 98 -39q67 2 111 37q42 33 59 62q28 37 45 102q5 16 8.5 34t4.5 38q1 18 1.5 39.5t0.5 46.5z
" />
    <glyph glyph-name="colon" unicode=":" horiz-adv-x="606" 
d="M182 98q0 54 37 88q33 33 84 33q53 0 88 -33q33 -35 33 -88q0 -51 -33 -84q-34 -34 -88 -37q-53 3 -84 37q-37 34 -37 84zM182 754q0 54 37 88q35 32 84 32q53 0 88 -32q33 -35 33 -88t-33 -84q-34 -37 -88 -37q-51 0 -84 37q-37 34 -37 84z" />
    <glyph glyph-name="semicolon" unicode=";" horiz-adv-x="606" 
d="M201 -360q125 104 164 174q31 67 30 112q0 42 -10 62q-11 20 -23 35q-14 -17 -32 -29q-23 -17 -58 -17q-51 0 -86 35q-39 33 -39 88q2 66 50 97q43 30 92 30q69 0 119 -51q50 -53 51 -151q0 -79 -25 -138q-23 -62 -63 -116q-42 -52 -80 -89.5t-72 -62.5zM168 754
q0 54 37 88q35 32 84 32q53 0 88 -32q33 -35 33 -88t-33 -84q-34 -37 -88 -37q-51 0 -84 37q-37 31 -37 84z" />
    <glyph glyph-name="less" unicode="&#x3c;" 
d="M1188 41v-41l-1163 483v17l1163 483v-41l-1096 -451z" />
    <glyph glyph-name="equal" unicode="=" 
d="M115 649v37h983v-37h-983zM115 297v37h983v-37h-983z" />
    <glyph glyph-name="greater" unicode="&#x3e;" 
d="M25 942v41l1163 -483v-17l-1163 -483v41l1097 450z" />
    <glyph glyph-name="question" unicode="?" horiz-adv-x="909" 
d="M254 360v523h22q32 -66 72 -82q39 -19 70 -17q87 0 119 84q26 87 26 273q0 190 -29 266q-30 66 -100 65q-45 0 -78 -18q-39 -21 -39 -55q0 -23 27 -74q21 -47 21 -72q-3 -53 -39 -63q-33 -12 -52 -10q-16 -1 -59 12q-18 8 -33 26q-16 19 -16 52q0 74 67 147q68 77 203 78
q132 0 215 -90q80 -92 82 -273q-2 -174 -84 -274q-82 -106 -209 -106q-65 0 -102 28q-19 11 -34.5 23t-27.5 26v-469h-22zM143 98q0 54 37 88q33 33 84 33t86 -33q35 -35 35 -88q0 -51 -35 -84q-34 -34 -86 -37q-53 3 -84 37q-37 34 -37 84z" />
    <glyph glyph-name="at" unicode="@" horiz-adv-x="1706" 
d="M1288 1083l-139 -475q-23 -86 -21 -119q2 -71 43 -94q34 -22 72 -20q57 0 117 45q58 43 108 114q109 151 113 353q-2 233 -164 395q-164 163 -471 168q-351 -6 -563 -236q-218 -224 -219 -522q2 -297 205 -487q195 -195 522 -197q131 0 274 45q147 45 279 148l26 -37
q-16 -13 -37.5 -27t-48.5 -31q-26 -17 -58 -33t-69 -32q-145 -73 -385 -78q-319 6 -548 199q-236 190 -240 534q4 338 252 565q241 229 604 234q313 -4 496 -174q184 -173 186 -432q-4 -219 -127 -387q-57 -79 -131 -127q-74 -51 -156 -51q-119 4 -151 75q-33 64 -31 107
q-89 -182 -252 -182q-125 2 -201 88q-77 83 -77 204q4 203 145 344q134 142 291 146q5 0 15 -0.5t24 -1.5q28 -2 59 -17q37 -13 64 -43q25 -32 36 -90l39 129h119zM1094 919q0 47 -33 91q-37 45 -107 47q-59 0 -114 -45q-56 -47 -101 -119q-22 -35 -38.5 -73.5t-28.5 -80.5
q-27 -84 -27 -162q0 -14 2 -30t6 -35q6 -38 25 -68q33 -69 119 -71q76 2 120 53q46 47 66 98q20 42 63 166q47 125 48 229z" />
    <glyph glyph-name="A" unicode="A" horiz-adv-x="1403" 
d="M690 1513h17l595 -1490h148v-23h-619v23h197l-199 514h-501l-201 -514h176v-23h-350v23h145zM819 559l-242 608l-239 -608h481z" />
    <glyph glyph-name="B" unicode="B" horiz-adv-x="1403" 
d="M270 1436h-184v22h305q34 0 67.5 1t67.5 3t67.5 3t67.5 1q227 0 381 -94q156 -94 160 -283q0 -80 -33 -135q-34 -51 -88 -90q-53 -38 -110 -57q-30 -11 -57 -19.5t-52 -15.5v-14q170 -25 301 -115q131 -92 135 -278q-2 -115 -49 -189q-53 -76 -133 -113q-42 -19 -86 -33
t-92 -22q-51 -8 -99.5 -12t-97.5 -4q-35 0 -71 1t-72 3t-72 3t-73 1h-367v23h184v1413zM524 27q51 -7 105 -10t112 -3q26 0 51 3t50 8q49 8 90 43t67 110q25 74 25 203q0 125 -23 205q-8 37 -24 65q-15 25 -37 43q-37 37 -88 47q-50 6 -107 6h-221v-720zM524 770h219
q51 0 93 14q37 13 63 45q49 61 49 265q0 215 -57 286q-61 65 -217 64q-22 0 -59 -2t-91 -6v-666z" />
    <glyph glyph-name="C" unicode="C" horiz-adv-x="1366" 
d="M1218 1018h-16q-17 88 -49.5 165t-81.5 146q-98 139 -289 143q-137 -2 -202 -53q-68 -53 -93 -102q-52 -103 -69 -275q-8 -88 -12.5 -168.5t-4.5 -156.5q-4 -406 66 -553q67 -176 313 -178q337 -9 459 432h16v-432h-16q-4 8 -10.5 14.5t-14.5 11.5q-17 11 -55 11
q-11 0 -23 -1.5t-26 -3.5q-30 -6 -80 -22q-13 -2 -34.5 -6t-53.5 -10q-34 -8 -72 -12t-80 -5q-288 2 -481 197q-194 194 -198 538q8 381 227 590q213 206 442 207q33 0 63 -3.5t58 -10.5q52 -17 129 -48q98 -32 111 -28q26 0 41 12q12 9 20 27h16v-426z" />
    <glyph glyph-name="D" unicode="D" horiz-adv-x="1630" 
d="M270 1436h-184v22h375q32 0 64.5 1t64.5 3t64.5 3t64.5 1q342 -6 553 -229q213 -222 217 -535q0 -260 -189 -477q-188 -225 -583 -233q-30 0 -60 1t-59 3t-59.5 3t-61.5 1h-391v23h184v1413zM524 25q57 -5 108 -8t99 -3q153 0 248 66q46 31 81 71.5t58 92.5
q49 102 66 227q7 63 10.5 125t3.5 125q0 72 -3.5 139t-10.5 133q-8 64 -25 121.5t-43 110.5q-50 102 -147 161q-100 58 -258 58q-42 -1 -88.5 -3.5t-98.5 -7.5v-1408z" />
    <glyph glyph-name="E" unicode="E" horiz-adv-x="1403" 
d="M1294 0h-1208v23h184v1413h-184v22h1089v-352h-16q-20 64 -51 123q-29 59 -78 104q-25 23 -54.5 42.5t-64.5 33.5q-71 27 -176 27h-211v-672q53 -2 113 6q55 4 108 31q26 13 49 34t42 52q17 28 29.5 68t19.5 94h16v-598h-16q-11 110 -49 169q-39 60 -93 87
q-53 25 -108 30q-30 2 -57.5 3t-53.5 1v-718h305q159 -3 269 86q110 86 180 301h16v-410z" />
    <glyph glyph-name="F" unicode="F" horiz-adv-x="1290" 
d="M270 1436h-184v22h1130v-469h-16q-76 438 -500 447h-176v-684q176 0 256 75q78 75 88 224h17v-627h-17q-2 41 -12 92q-10 52 -47 98q-33 52 -100 82q-71 33 -185 33v-706h197v-23h-635v23h184v1413z" />
    <glyph glyph-name="G" unicode="G" horiz-adv-x="1554" 
d="M1094 539h-228v22h668v-22h-187v-539h-16q-16 49 -47 59q-33 9 -47 9q-44 0 -137 -43q-153 -62 -303 -62q-307 4 -494 205q-190 199 -192 530q8 381 227 590q213 206 442 207q33 0 63 -3.5t58 -10.5q52 -17 129 -48q98 -32 111 -28q26 0 41 12q12 9 20 27h16v-426h-16
q-17 88 -49.5 165t-81.5 146q-98 139 -289 143q-137 -2 -202 -53q-68 -53 -93 -102q-52 -103 -69 -275q-8 -88 -12.5 -168.5t-4.5 -156.5q-4 -406 66 -553q67 -176 313 -178q110 0 170 22q64 21 94 58q33 36 43 86q4 25 5.5 50.5t1.5 53.5v283z" />
    <glyph glyph-name="H" unicode="H" horiz-adv-x="1630" 
d="M270 1436h-184v22h645v-22h-207v-672h582v672h-207v22h645v-22h-184v-1413h184v-23h-645v23h207v718h-582v-718h207v-23h-645v23h184v1413z" />
    <glyph glyph-name="I" unicode="I" horiz-adv-x="836" 
d="M291 1436h-185v22h623v-22h-184v-1413h184v-23h-623v23h185v1413z" />
    <glyph glyph-name="J" unicode="J" horiz-adv-x="1024" 
d="M778 442q0 -213 -102 -342q-106 -135 -324 -137q-90 2 -151 27q-64 24 -105 65q-78 85 -78 174q-1 56 37 113q19 25 51 41q31 16 82 16q88 -2 117 -39q27 -38 27 -75q-2 -52 -37 -99q-37 -51 -39 -116q2 -54 41 -68q35 -16 68 -16q87 0 124 61q35 59 35 203v1186h-184v22
h625v-22h-187v-994z" />
    <glyph glyph-name="K" unicode="K" horiz-adv-x="1442" 
d="M270 1436h-184v22h618v-22h-180v-660h15l571 660h-164v22h358v-22h-165l-424 -494l643 -919h114v-23h-608v23h185l-510 731h-15v-731h164v-23h-602v23h184v1413z" />
    <glyph glyph-name="L" unicode="L" horiz-adv-x="1366" 
d="M270 1436h-184v22h625v-22h-187v-1413h142q209 0 370 116q156 115 201 326h16v-465h-1167v23h184v1413z" />
    <glyph glyph-name="M" unicode="M" horiz-adv-x="1782" 
d="M264 1436h-186v22h465l321 -1059l381 1059h459v-22h-187v-1413h187v-23h-625v23h185v1413l-523 -1452h-18l-436 1452v-1413h192v-23h-401v23h186v1413z" />
    <glyph glyph-name="N" unicode="N" horiz-adv-x="1479" 
d="M262 1436h-184v22h395l721 -1028v1006h-184v22h391v-22h-185v-1452h-16l-915 1302v-1263h186v-23h-393v23h184v1413z" />
    <glyph glyph-name="O" unicode="O" horiz-adv-x="1630" 
d="M111 729q6 352 225 557q213 207 479 209q271 -2 481 -209q217 -205 224 -557q-8 -350 -228 -555q-215 -209 -477 -211q-257 2 -475 211q-223 205 -229 555zM401 729q-1 -45 3 -112.5t14 -161.5q10 -86 30 -172q22 -88 58 -152q51 -78 131 -111q77 -34 178 -34
q103 0 180 34q79 33 129 111q20 34 35.5 71.5t26.5 80.5q23 84 30 172q8 94 11 161.5t2 112.5q1 46 -2 114.5t-11 159.5q-7 89 -30 175q-11 42 -26.5 78.5t-35.5 70.5q-46 80 -129 115q-80 30 -180 30t-178 -30q-79 -34 -131 -115q-36 -64 -58 -149q-20 -84 -30 -175
t-14 -159.5t-3 -114.5z" />
    <glyph glyph-name="P" unicode="P" horiz-adv-x="1403" 
d="M270 1436h-184v22h301q37 0 73.5 1t71.5 3q37 2 73.5 3t72.5 1q231 0 416 -108q186 -115 192 -365q-2 -141 -82 -239q-82 -99 -209 -152q-95 -45 -233 -43q-75 0 -139 29q-32 13 -57 25.5t-42 23.5v-614h185v-23h-623v23h184v1413zM524 670q17 -11 41 -24.5t53 -29.5
q59 -32 129 -34q79 0 132 36q51 34 81 93q16 29 26 62.5t15 70.5q5 35 8 72.5t3 76.5q2 188 -70 318q-76 131 -274 133q-19 0 -54.5 -2t-89.5 -6v-766z" />
    <glyph glyph-name="Q" unicode="Q" horiz-adv-x="1630" 
d="M111 729q6 352 225 557q213 207 479 209q271 -2 481 -209q217 -205 224 -557q-7 -346 -220 -547q-206 -203 -471 -219q0 -10 17 -22q7 -5 21.5 -13t37.5 -18q60 -27 92 -74q17 -26 31 -51.5t25 -50.5q13 -25 28 -46.5t33 -39.5q35 -39 98 -41q142 4 146 145q2 25 8 37
q4 10 24 10q32 -1 31 -34q0 -25 -14 -62q-17 -35 -53 -70q-19 -15 -42.5 -28.5t-52.5 -24.5q-62 -23 -147 -24q-182 2 -281 63q-102 61 -102 148q0 53 21 86q9 16 19 30t21 25q17 29 17 55q-266 14 -475 217q-215 206 -221 549zM401 729q-1 -45 3 -112.5t14 -161.5
q10 -86 30 -172q22 -88 58 -152q51 -78 131 -111q77 -34 178 -34q103 0 180 34q79 33 129 111q20 34 35.5 71.5t26.5 80.5q23 84 30 172q8 94 11 161.5t2 112.5q1 46 -2 114.5t-11 159.5q-7 89 -30 175q-11 42 -26.5 78.5t-35.5 70.5q-46 80 -129 115q-80 30 -180 30
t-178 -30q-79 -34 -131 -115q-36 -64 -58 -149q-20 -84 -30 -175t-14 -159.5t-3 -114.5z" />
    <glyph glyph-name="R" unicode="R" horiz-adv-x="1517" 
d="M270 1436h-184v22h356q31 0 61.5 1t59.5 3q30 2 60 3t59 1q190 2 356 -82q172 -85 178 -295q0 -69 -32 -122q-17 -26 -39.5 -49.5t-48.5 -43.5q-115 -75 -242 -100v-8q78 -11 138.5 -29t103.5 -41q86 -50 122 -119q39 -68 48 -147q7 -80 6 -168q0 -54 4 -98t12 -78
q12 -31 35 -51q24 -21 65 -21q44 0 72 19q14 8 25 15.5t18 14.5l17 -22q-26 -23 -66 -39q-41 -17 -119 -18q-104 2 -168 32q-67 33 -104 82q-68 107 -66 248v115q-1 39 -3.5 69.5t-6.5 53.5q-20 102 -84 139q-65 33 -153 33h-226v-733h187v-23h-625v23h184v1413zM524 778
h226q37 0 75 12q17 7 33.5 17t30.5 24q30 33 47 97q16 58 16 161q2 152 -55 252q-58 102 -215 103q-46 -1 -85.5 -3.5t-72.5 -7.5v-655z" />
    <glyph glyph-name="S" unicode="S" 
d="M125 502h16q39 -230 168 -369q131 -146 295 -147q134 0 232 69q101 68 102 209q1 120 -88 193q-46 34 -123 75.5t-188 92.5q-45 22 -83.5 42t-72.5 40q-69 37 -115 81q-96 84 -96 252q2 184 121 318q116 133 295 137q55 0 102 -12q23 -7 47.5 -15.5t50.5 -19.5
q50 -21 72 -19q39 0 53 23q14 20 15 35h16v-408h-16q-8 28 -17.5 58.5t-21.5 62.5q-26 66 -66 129q-38 62 -98 104q-59 39 -145 39q-45 0 -84 -10q-48 -12 -88 -43q-41 -26 -68 -74q-29 -50 -29 -118q0 -140 107 -217q104 -80 305 -170q39 -17 75 -33t68 -33q62 -32 115 -80
q50 -45 78 -106q28 -59 28 -150q-4 -190 -145 -329q-140 -141 -338 -146q-37 0 -88 6q-26 2 -59.5 9.5t-73.5 21.5q-115 41 -158 41q-45 -2 -61 -23q-21 -20 -23 -34h-16v518z" />
    <glyph glyph-name="T" unicode="T" horiz-adv-x="1368" 
d="M557 1436h-25q-208 -3 -321 -140q-115 -133 -145 -329h-17v491h1270v-491h-17q-30 195 -143 329q-116 137 -323 140h-25v-1413h184v-23h-622v23h184v1413z" />
    <glyph glyph-name="U" unicode="U" horiz-adv-x="1554" 
d="M520 500q-2 -210 37 -328q63 -180 307 -186q191 0 305 102q115 100 117 317v1031h-188v22h397v-22h-186v-1031q-1 -219 -123 -329q-123 -111 -328 -113q-593 -12 -592 541v932h-184v22h625v-22h-187v-936z" />
    <glyph glyph-name="V" unicode="V" horiz-adv-x="1442" 
d="M-23 1436v22h641v-22h-225l449 -1149l458 1149h-178v22h357v-22h-152l-594 -1491h-18l-596 1491h-142z" />
    <glyph glyph-name="W" unicode="W" horiz-adv-x="2390" 
d="M-23 1436v22h643v-22h-225l451 -1153l340 860l-117 293h-143v22h641v-22h-224l447 -1153l461 1153h-179v22h355v-22h-150l-596 -1491h-18l-463 1165l-465 -1165h-18l-596 1491h-144z" />
    <glyph glyph-name="X" unicode="X" horiz-adv-x="1366" 
d="M580 674l-422 762h-178v22h671v-22h-215l305 -545l342 545h-170v22h355v-22h-158l-354 -572l471 -841h159v-23h-661v23h217l-350 628l-383 -628h176v-23h-381v23h176z" />
    <glyph glyph-name="Y" unicode="Y" horiz-adv-x="1366" 
d="M414 23h184v573l-467 840h-158v22h664v-22h-207l399 -729l359 729h-170v22h356v-22h-160l-362 -742v-671h186v-23h-624v23z" />
    <glyph glyph-name="Z" unicode="Z" horiz-adv-x="1290" 
d="M897 1436h-283q-195 -3 -301 -127q-104 -125 -143 -306h-16v455h1036l-848 -1435h278q253 0 390 143q133 136 178 377h16v-543h-1153z" />
    <glyph glyph-name="bracketleft" unicode="[" horiz-adv-x="569" 
d="M504 1458v-41h-213v-1966h213v-41h-254v2048h254z" />
    <glyph glyph-name="backslash" unicode="\" horiz-adv-x="606" 
d="M600 0l-41 -12l-553 1470l41 12z" />
    <glyph glyph-name="bracketright" unicode="]" horiz-adv-x="569" 
d="M319 1458v-2048h-253v41h213v1966h-213v41h253z" />
    <glyph glyph-name="asciicircum" unicode="^" 
d="M244 625l354 833h18l353 -833h-43l-320 755l-317 -755h-45z" />
    <glyph glyph-name="underscore" unicode="_" horiz-adv-x="1024" 
d="M0 -217v63h1024v-63h-1024z" />
    <glyph glyph-name="grave" unicode="`" horiz-adv-x="569" 
d="M399 1153l-372 254q-7 4 -12.5 9.5t-10.5 12.5q-12 12 -14 37q0 27 22 49q23 23 54 23q29 0 51 -16q10 -11 24 -28t33 -40l250 -301h-25z" />
    <glyph glyph-name="a" unicode="a" horiz-adv-x="985" 
d="M799 125q0 -68 14 -94q12 -26 37 -25q30 0 47 21q7 9 13.5 19.5t13.5 21.5l22 -11q-16 -35 -41 -57q-29 -23 -94 -23q-95 3 -135 39q-21 16 -33 33q-7 9 -11.5 15t-8.5 10q-29 -45 -80 -78q-48 -33 -144 -35q-135 1 -225 66q-92 58 -94 165q0 91 57 138q58 46 180 78
l101 28q105 34 145 94q39 61 39 146q1 55 -4 98t-16 74q-27 59 -117 61q-47 0 -66 -18q-16 -19 -16 -55q1 -37 6 -76q-1 -47 -39 -58q-35 -12 -57 -10q-34 0 -68 10q-39 13 -41 54q0 62 74 118q71 56 197 58q53 0 112 -15q61 -16 113 -65q53 -45 86 -131t33 -223v-373z
M594 534q-29 -47 -66 -73q-42 -26 -94 -51q-40 -16 -67 -33.5t-43 -36.5q-33 -41 -33 -152q0 -110 33 -155q30 -43 100 -43q80 2 121 37q44 32 63 71q-8 37 -11.5 63t-2.5 40v333z" />
    <glyph glyph-name="b" unicode="b" horiz-adv-x="1139" 
d="M207 1485h-148v22h353v-696q16 30 65 76q49 43 146 45q149 -2 284 -131q138 -130 142 -346q-5 -212 -136 -342q-130 -133 -286 -136q-103 3 -150 56q-49 46 -65 80v-113h-353v23h148v1462zM395 459q-5 -264 45 -350q49 -74 105 -93q52 -16 80 -16q128 0 163 119
q33 115 31 366q1 91 -5.5 165t-20.5 134q-16 60 -60 95q-44 30 -113 30q-83 0 -147 -57q-53 -47 -65 -127q-8 -40 -11 -106t-2 -160z" />
    <glyph glyph-name="c" unicode="c" horiz-adv-x="872" 
d="M887 178q-111 -217 -365 -217q-180 2 -309 125q-134 118 -135 336q2 202 127 354q123 151 329 156q157 -2 234 -64q74 -59 74 -116q-2 -45 -39 -60q-37 -13 -74 -12q-36 0 -72 14q-39 15 -39 60q1 18 3 36t4 37q-4 82 -101 82q-124 0 -170 -108q-48 -112 -47 -361
q0 -272 55 -366q27 -49 70 -70q43 -20 92 -20q111 0 203 53q86 49 139 149z" />
    <glyph glyph-name="d" unicode="d" horiz-adv-x="1139" 
d="M932 23h147v-23h-352v113q-14 -33 -61 -80q-25 -22 -62 -39q-42 -17 -92 -17q-153 3 -283 136q-135 130 -139 342q5 218 146 346q132 129 280 131q100 -1 148 -45q45 -43 63 -76v674h-147v22h352v-1484zM743 459q0 94 -2 160t-6 106q-12 80 -69 127q-65 57 -148 57
q-135 -2 -168 -125q-18 -57 -24 -135q-4 -39 -5.5 -80t-1.5 -84q-2 -248 33 -366q35 -119 162 -119q30 0 82 16q14 7 28 15.5t27 19.5q24 19 47 58q47 86 45 350z" />
    <glyph glyph-name="e" unicode="e" horiz-adv-x="948" 
d="M895 178q-46 -104 -141 -160q-99 -56 -213 -57q-187 2 -316 125q-135 118 -137 336q1 219 135 362q130 146 303 148q140 0 252 -109q116 -110 123 -325h-584v-74q0 -42 1.5 -82.5t3.5 -79.5q4 -78 24 -141q23 -62 68 -98q45 -38 127 -39q74 0 174 41q97 43 159 161z
M707 520q1 111 -7.5 187.5t-27.5 119.5q-39 83 -154 82q-67 0 -106 -24q-41 -29 -62 -78q-34 -103 -33 -287h390z" />
    <glyph glyph-name="f" unicode="f" horiz-adv-x="682" 
d="M438 23h156v-23h-508v23h147v847h-147v23h147q0 72 4.5 140t14.5 134q17 129 84 232q64 84 133 104q65 21 113 19q67 0 108 -19q43 -18 66 -47q45 -61 43 -102q-2 -39 -37 -50q-33 -14 -62 -12q-8 -1 -21.5 1t-33.5 7q-44 11 -45 52q0 8 8 51q6 34 6 47q0 31 -16 41
q-21 8 -39 8q-22 0 -41 -6q-23 -8 -41 -35q-16 -24 -26 -76q-13 -51 -13 -143v-346h156v-23h-156v-847z" />
    <glyph glyph-name="g" unicode="g" horiz-adv-x="985" 
d="M479 932q10 0 22 -0.5t27 -1.5q14 -2 30.5 -6t35.5 -11q37 -11 74 -39q19 -13 36.5 -30t34.5 -39q11 14 23.5 26t25.5 23q29 20 72 20q53 0 82 -26q27 -29 27 -66q0 -50 -64 -51q-52 0 -59 45q-11 57 -35 57q-27 -2 -59 -47q15 -18 32 -65q8 -23 13 -52.5t6 -66.5
q0 -116 -82 -207q-85 -99 -242 -100q-46 0 -112 20q-62 21 -127 74q-37 -19 -62 -43q-33 -29 -33 -78q4 -84 84 -102q38 -10 69 -14t54 -3q39 0 123 9q84 6 117 6q54 -1 98.5 -10.5t79.5 -26.5q67 -37 102 -94q61 -119 60 -207q-1 -164 -117 -268q-118 -107 -301 -109
q-152 2 -272 78q-126 73 -127 197q-1 132 202 235q-100 11 -161 72q-66 58 -66 159q2 102 49 152q45 47 82 63q-13 16 -25.5 35.5t-23.5 44.5q-27 49 -27 117q5 167 119 250q113 80 215 80zM852 -268q0 94 -62 168q-62 69 -202 71q-119 -1 -244 -12q-13 -10 -27 -26t-30 -39
q-33 -48 -33 -142q0 -14 2 -33t6 -43q4 -23 12.5 -46.5t22.5 -49.5q43 -65 108 -88q69 -20 117 -20q116 0 219 61q52 31 82 82q29 50 29 117zM326 604q-2 -171 32 -229q34 -59 121 -58q72 -4 109 48q18 30 26 88q9 57 9 153q0 203 -35 256q-20 31 -45 41q-29 6 -66 6
q-86 2 -119 -63q-34 -64 -32 -242z" />
    <glyph glyph-name="h" unicode="h" 
d="M223 1485h-147v22h352v-770q6 16 13.5 32.5t17.5 33.5q8 16 20 31t27 30q31 31 74 49q38 19 96 19q180 -4 260 -105q53 -65 69 -139q7 -37 10 -75t3 -76v-514h147v-23h-495v23h143v585q2 144 -27 221q-30 78 -129 80q-61 0 -104 -28q-43 -31 -72 -82q-53 -104 -53 -213
v-563h143v-23h-495v23h147v1462z" />
    <glyph glyph-name="i" unicode="i" horiz-adv-x="645" 
d="M227 870h-147v23h352v-870h148v-23h-500v23h147v847zM184 1382q0 57 41 95q35 38 92 38q58 -1 97 -36q34 -37 37 -97q-3 -58 -37 -92q-39 -41 -97 -41q-57 0 -92 41q-41 39 -41 92z" />
    <glyph glyph-name="j" unicode="j" horiz-adv-x="645" 
d="M432 -199q0 -177 -74 -290q-76 -117 -258 -119q-69 2 -112 20q-46 22 -70 45q-43 58 -43 92q1 40 31 56q31 14 71 14q44 2 70 -10q27 -14 27 -49q0 -30 -4 -47q-9 -21 -9 -47q0 -52 66 -52q43 0 72 35q28 34 28 127v1294h-147v23h352v-1092zM184 1382q0 57 41 95
q35 38 92 38q58 -1 97 -36q34 -37 37 -97q-3 -58 -37 -92q-39 -41 -97 -41q-57 0 -92 41q-41 39 -41 92z" />
    <glyph glyph-name="k" unicode="k" horiz-adv-x="1100" 
d="M213 1485h-147v22h352v-1016l440 379h-164v23h342v-23h-139l-324 -278l465 -569h99v-23h-514v23h157l-362 446v-446h129v-23h-481v23h147v1462z" />
    <glyph glyph-name="l" unicode="l" horiz-adv-x="645" 
d="M227 1485h-147v22h352v-1484h148v-23h-500v23h147v1462z" />
    <glyph glyph-name="m" unicode="m" horiz-adv-x="1782" 
d="M213 870h-147v23h352v-156q12 31 30 66q10 17 21.5 32t24.5 29q28 31 71 49q41 19 101 19q7 0 19.5 -0.5t31.5 -1.5q35 -1 82 -21q47 -13 94 -51q47 -39 80 -104q37 76 102 129q65 47 174 49q169 -1 260 -103q55 -55 72 -125q16 -63 16 -167v-514h148v-23h-496v23h144
v597q0 54 -3 107q-2 50 -20 90q-14 42 -49 68q-38 24 -100 24q-29 0 -60 -6q-16 -4 -31.5 -12t-31.5 -19q-62 -41 -113 -151q12 -38 18 -84q2 -13 3.5 -25t1.5 -24v-565h147v-23h-496v23h144v585q2 144 -27 221q-31 78 -129 80q-63 0 -106 -33q-46 -32 -72 -83
q-53 -110 -51 -207v-563h143v-23h-495v23h147v847z" />
    <glyph glyph-name="n" unicode="n" 
d="M223 870h-147v23h352v-156q6 16 13.5 32.5t17.5 33.5q8 16 20 31t27 30q31 31 74 49q38 19 96 19q180 -4 260 -105q53 -65 69 -139q7 -37 10 -75t3 -76v-514h147v-23h-495v23h143v585q2 144 -27 221q-30 78 -129 80q-61 0 -104 -28q-43 -31 -72 -82q-53 -104 -53 -213
v-563h143v-23h-495v23h147v847z" />
    <glyph glyph-name="o" unicode="o" horiz-adv-x="1100" 
d="M98 446q4 220 154 353q142 132 299 133q161 -2 303 -133q143 -131 147 -353q-5 -217 -147 -350q-141 -134 -303 -135q-163 2 -301 137q-148 128 -152 348zM328 446q0 -108 6 -192q4 -86 24 -148q23 -59 68 -90q45 -30 125 -32q84 0 127 34q45 31 65 93q21 61 27 147
q1 42 1.5 89t0.5 99q0 55 -0.5 103.5t-1.5 91.5q-2 45 -8.5 80.5t-16.5 64.5q-20 62 -65 93q-45 30 -129 30q-78 0 -121 -28q-45 -30 -68 -91q-19 -60 -27.5 -146t-6.5 -198z" />
    <glyph glyph-name="p" unicode="p" horiz-adv-x="1139" 
d="M412 893v-82q16 30 65 76q49 43 146 45q149 -2 284 -131q138 -130 142 -346q-5 -212 -136 -342q-130 -133 -286 -136q-103 3 -150 56q-49 46 -65 80v-680h147v-23h-500v23h148v1437h-148v23h353zM395 459q-5 -264 45 -350q49 -74 105 -93q52 -16 80 -16q128 0 163 119
q33 115 31 366q1 91 -5.5 165t-20.5 134q-16 60 -60 95q-44 30 -113 30q-83 0 -147 -57q-53 -47 -65 -127q-8 -40 -11 -106t-2 -160z" />
    <glyph glyph-name="q" unicode="q" horiz-adv-x="1139" 
d="M932 -567h147v-23h-499v23h147v680q-14 -33 -61 -80q-25 -22 -62 -39q-42 -17 -92 -17q-153 3 -283 136q-135 130 -139 342q5 218 146 346q132 129 280 131q100 -1 148 -45q45 -43 63 -76v82h352v-23h-147v-1437zM743 459q0 94 -2 160t-6 106q-12 80 -69 127
q-65 57 -148 57q-135 -2 -168 -125q-18 -57 -24 -135q-4 -39 -5.5 -80t-1.5 -84q-2 -248 33 -366q35 -119 162 -119q30 0 82 16q14 7 28 15.5t27 19.5q24 19 47 58q47 86 45 350z" />
    <glyph glyph-name="r" unicode="r" horiz-adv-x="833" 
d="M223 870h-147v23h352v-119q16 53 59 105q21 24 58 40q29 13 82 13q101 -2 147 -58q43 -52 43 -102q0 -32 -24 -57q-27 -27 -84 -27q-101 1 -103 72q1 23 3 44.5t5 41.5q-2 45 -49 45q-61 -2 -98 -80q-39 -83 -39 -221v-567h147v-23h-499v23h147v847z" />
    <glyph glyph-name="s" unicode="s" horiz-adv-x="797" 
d="M59 297h17q9 -36 19.5 -67.5t21.5 -59.5q22 -51 73 -102q84 -84 201 -84q112 2 166 53q51 49 51 115q0 67 -55 110q-60 43 -186 98q-25 13 -48 25t-45 25q-22 11 -42 25.5t-37 31.5q-35 33 -54 82q-22 43 -22 112q1 133 88 203q83 68 186 68q38 0 78 -8q16 -5 29 -10.5
t24 -10.5q55 -24 72 -22q27 0 33 12h16v-215h-16q-7 37 -16.5 66t-20.5 51q-26 45 -60 69q-68 46 -135 45q-42 0 -102 -26q-62 -29 -64 -115q0 -68 54 -119q14 -13 32 -26t41 -27t51 -30.5t62 -35.5q135 -63 203 -116q63 -56 63 -150q-2 -123 -102 -211q-99 -90 -252 -92
q-84 2 -154 33q-35 14 -62 22t-46 9q-32 0 -45 -25h-17v297z" />
    <glyph glyph-name="t" unicode="t" horiz-adv-x="645" 
d="M209 1153q17 -4 41 -4q88 0 164 112v-368h204v-23h-204v-786q0 -53 16 -72q12 -18 43 -18q29 0 72 22q22 16 41 41q18 27 30 70l23 -6q-23 -89 -80 -123q-58 -37 -133 -37q-221 -2 -217 289v620h-158v23h158v260z" />
    <glyph glyph-name="u" unicode="u" 
d="M201 870h-148v23h352v-621q0 -145 39 -209q37 -63 115 -63q70 0 119 37q45 33 69 84q46 107 43 201v548h-143v23h348v-870h148v-23h-353v172q-4 -17 -10 -33t-16 -33q-20 -35 -45 -63q-27 -29 -70 -45q-45 -18 -108 -21q-93 3 -156 33q-66 28 -111 78q-77 100 -73 285
v497z" />
    <glyph glyph-name="v" unicode="v" horiz-adv-x="948" 
d="M-27 870v23h525v-23h-179l279 -639l235 639h-139v23h281v-23h-115l-340 -925h-16l-418 925h-113z" />
    <glyph glyph-name="w" unicode="w" horiz-adv-x="1630" 
d="M-18 870v23h516v-23h-179l281 -641l201 539l-43 102h-113v23h522v-23h-180l283 -641l239 641h-141v23h281v-23h-115l-342 -925h-17l-358 790l-297 -790h-16l-414 925h-108z" />
    <glyph glyph-name="x" unicode="x" horiz-adv-x="985" 
d="M414 410l-312 460h-116v23h522v-23h-172l209 -305l202 305h-149v23h317v-23h-139l-219 -323l358 -524h127v-23h-534v23h166l-246 366l-250 -366h174v-23h-344v23h139z" />
    <glyph glyph-name="y" unicode="y" horiz-adv-x="948" 
d="M-23 870v23h527v-23h-178l270 -620l223 620h-141v23h280v-23h-114l-359 -999q-53 -152 -96 -240q-43 -89 -80 -129t-67 -51q-33 -12 -66 -12q-61 1 -100 45q-39 39 -39 82q0 30 26 53q25 21 74 21q37 2 62 -11q29 -14 30 -47q0 -15 -8 -37t-8 -39q0 -26 29 -26
q28 2 59 47q31 40 61 104q33 64 58 125q11 31 19.5 55.5t15.5 41.5l41 112l-406 905h-113z" />
    <glyph glyph-name="z" unicode="z" horiz-adv-x="909" 
d="M586 870h-232q-11 0 -24 -0.5t-27 -1.5q-28 -4 -65 -26q-35 -21 -66 -70q-7 -13 -13.5 -27.5t-13.5 -31.5q-7 -19 -13.5 -39t-12.5 -43h-17v262h740l-557 -870h282q117 2 185 86q67 79 86 190h16v-299h-829z" />
    <glyph glyph-name="braceleft" unicode="{" horiz-adv-x="758" 
d="M348 106q2 147 -47 218q-56 69 -231 106v8q175 37 231 109q49 68 47 215v225q-1 70 3 129.5t14 110.5q18 98 104 163q56 45 121 56q61 10 100 12v-37q-105 -6 -172 -41q-62 -37 -90 -94q-27 -53 -33 -117q-7 -61 -6 -125v-165q0 -85 -2 -144.5t-6 -97.5q-10 -77 -64 -125
q-49 -45 -104 -59q-26 -8 -47.5 -13t-35.5 -6q14 -2 35.5 -6t47.5 -10q55 -17 104 -62q54 -48 64 -120q4 -38 6 -99.5t2 -146.5v-166q-2 -59 6 -121q6 -61 33 -119q27 -53 90 -90q64 -37 172 -47v-37q-39 2 -100 15q-61 12 -121 53q-86 69 -104 168q-14 49 -15 108
q-1 30 -1.5 61.5t-0.5 65.5v225z" />
    <glyph glyph-name="bar" unicode="|" horiz-adv-x="455" 
d="M207 1536h41v-2048h-41v2048z" />
    <glyph glyph-name="braceright" unicode="}" horiz-adv-x="758" 
d="M410 762q-2 -144 51 -215q54 -72 227 -109v-8q-173 -37 -227 -106q-53 -74 -51 -218v-225q2 -137 -15 -235q-18 -99 -106 -168q-61 -41 -119 -53q-65 -14 -102 -15v37q112 10 176 47q63 38 88 90q25 58 33 119q2 31 3 61.5t1 59.5v166q-1 85 1.5 146.5t8.5 99.5
q10 72 61 120q51 45 109 62q26 6 45 10t33 6q-14 1 -33 6t-45 13q-58 14 -109 59q-51 48 -61 125q-6 38 -8.5 97.5t-1.5 144.5v165q0 32 -1 63t-3 62q-8 64 -33 117q-25 57 -88 94q-67 35 -176 41v37q37 -2 102 -12q61 -10 119 -56q88 -64 106 -163q16 -101 15 -240v-225z
" />
    <glyph glyph-name="asciitilde" unicode="~" 
d="M745 467q116 -49 168 -47q87 0 146 69q55 66 86 166h37q-5 -15 -11 -33.5t-14 -41.5q-20 -51 -49 -93q-31 -44 -80 -75q-50 -33 -123 -33q-9 0 -22.5 2t-32.5 6t-49 13.5t-72 23.5l-250 96q-17 8 -38 16t-44 15q-50 14 -96 14q-59 0 -96 -22q-42 -28 -68 -64
q-49 -80 -67 -147h-37q6 19 13 40t15 44q10 23 22 45.5t28 44.5q29 43 81 71q50 29 121 29q26 -1 51.5 -5t51.5 -11q51 -17 75 -27z" />
    <glyph glyph-name="nonbreakingspace" unicode="&#xa0;" horiz-adv-x="530" 
 />
    <glyph glyph-name="exclamdown" unicode="&#xa1;" horiz-adv-x="606" 
d="M317 491l91 -980q1 -17 1.5 -31t0.5 -25q-2 -56 -37 -78q-38 -20 -70 -20t-67 20q-39 21 -39 78q0 11 0.5 25t1.5 31l90 980h28zM424 754q0 -53 -33 -84q-34 -37 -88 -37q-51 0 -84 37q-37 31 -37 84q0 54 37 88q35 32 84 32q54 0 88 -34q33 -35 33 -86z" />
    <glyph glyph-name="cent" unicode="&#xa2;" horiz-adv-x="1063" 
d="M279 -162l75 189q-227 130 -229 395q1 207 135 344q130 137 330 139q67 -2 108 -12l68 166l24 -8l-65 -162q129 -39 170 -99q37 -56 35 -114q0 -39 -19 -70q-23 -35 -88 -35q-18 -2 -53 11q-14 4 -29 20q-16 12 -16 37t16 70q5 23 8.5 40t4.5 27q0 33 -15 51
q-16 19 -30 23l-306 -768q19 -25 68 -57q45 -32 129 -33q8 0 21 1t30 3q17 3 38 8.5t44 13.5q47 22 94 66q46 43 84 119l23 -13q-13 -27 -39 -67q-13 -20 -29.5 -38.5t-36.5 -35.5q-39 -33 -100 -55q-31 -11 -67.5 -17.5t-79.5 -7.5q-38 1 -69 6t-56 13q-26 7 -46 13.5
t-34 12.5l-74 -184zM686 860q-15 9 -43 16q-24 7 -66 7q-129 2 -190 -101q-61 -106 -61 -364q0 -146 22 -211q20 -70 39 -98z" />
    <glyph glyph-name="sterling" unicode="&#xa3;" horiz-adv-x="1290" 
d="M135 790h201q-17 43 -33 105q-20 62 -20 135q0 149 112 291q109 147 324 153q118 0 213 -53q23 -14 41.5 -31.5t31.5 -39.5q27 -44 27 -103q0 -53 -22 -84q-26 -33 -80 -33q-19 -2 -49 11q-17 6 -27 22q-14 17 -14 39q0 18 8 39q6 20 16 37q19 33 21 69q-2 56 -56 82
q-55 23 -108 23q-78 0 -125 -35q-45 -39 -70 -96q-23 -60 -30 -127q-9 -68 -9 -133q0 -69 3 -135.5t8 -135.5h356v-28h-354q14 -114 22.5 -220.5t11.5 -209.5q0 -35 -3.5 -70.5t-10.5 -71.5q127 -31 338 -36q137 0 184 36q45 34 62 93l24 -9q-4 -14 -10.5 -33t-15.5 -42
q-11 -26 -25 -52t-33 -51q-32 -52 -88 -86q-54 -39 -135 -41q-105 0 -217 78q-49 35 -76 54t-32 22q-37 -60 -82 -90q-45 -33 -115 -33q-78 0 -111 39q-34 33 -34 70q0 53 45 83q40 31 104 31q13 0 27.5 -1t31.5 -3q19 -3 52 -9t82 -15q4 17 6 35t2 38q0 17 -2 39.5t-6 50.5
q-9 55 -39 129q-28 72 -55.5 140t-53.5 135h-213v28zM176 109q0 -29 29 -56q25 -30 94 -30q74 2 115 40q20 19 35.5 37t25.5 37q-13 11 -30.5 21t-39.5 20q-46 21 -102 23q-51 0 -86 -23q-41 -24 -41 -69z" />
    <glyph glyph-name="currency" unicode="&#xa4;" horiz-adv-x="1139" 
d="M131 311l129 131q-65 80 -86 156q-11 38 -16 69t-4 56q0 158 108 280l-131 132l27 26l131 -131q122 107 280 109q157 -2 279 -109l133 131l27 -26l-132 -132q76 -88 95 -165q8 -39 11.5 -67.5t2.5 -47.5v-45q-1 -16 -4.5 -32.5t-9.5 -35.5q-19 -80 -95 -168l132 -131
l-27 -26l-133 131q-64 -58 -135 -82q-77 -27 -146 -27q-55 0 -98 15q-47 12 -80 28q-68 37 -100 66l-131 -131zM195 723q2 -158 110 -264q106 -110 264 -111q162 1 267 111q106 106 108 264q-1 162 -108 266q-106 107 -267 109q-157 -2 -264 -109q-108 -104 -110 -266z" />
    <glyph glyph-name="yen" unicode="&#xa5;" horiz-adv-x="1366" 
d="M496 858h-265v29h252l-239 534h-148v23h537v-23h-182l337 -770l295 770h-164v23h351v-23h-158l-207 -534h260v-29h-270l-86 -227h356v-29h-358v-579h182v-23h-569v23h182v579h-371v29h367z" />
    <glyph glyph-name="brokenbar" unicode="&#xa6;" horiz-adv-x="455" 
d="M248 -358h-41v716h41v-716zM248 666h-41v716h41v-716z" />
    <glyph glyph-name="section" unicode="&#xa7;" horiz-adv-x="1063" 
d="M772 786q29 -17 52.5 -35t41.5 -36q19 -20 32 -41t21 -41q16 -40 23 -75.5t6 -66.5q-2 -110 -59 -194q-63 -93 -148 -158q8 -5 19.5 -13.5t25.5 -21.5q25 -24 54 -63q27 -37 49 -92q20 -54 20 -119q0 -60 -22 -123q-13 -35 -32 -68t-44 -65q-50 -62 -129 -102
q-40 -20 -87 -31t-104 -12q-147 2 -247 69q-105 68 -107 191q5 105 101 104q32 2 61 -12q27 -13 29 -57q-2 -39 -21 -72q-20 -35 -20 -66q0 -43 55 -86q52 -47 162 -49q77 2 129 31q55 29 86 70q61 91 61 190q0 80 -39 152q-43 70 -161 141l-263 160q-12 8 -25.5 19
t-29.5 24q-17 12 -35 27.5t-35 35.5q-16 20 -30 44t-25 52q-24 55 -24 127q0 135 90 242q20 20 36.5 36t30.5 27q16 13 29.5 21.5t24.5 13.5q-60 54 -97 123q-39 67 -39 145q0 131 107 244q101 114 293 119q131 0 217 -59q88 -60 90 -168q0 -47 -19 -78q-20 -35 -71 -35
q-23 -2 -53 12q-33 13 -35 60q1 39 18 71q8 17 12 33.5t5 32.5q0 42 -21 65q-23 23 -53 31q-68 14 -94 12q-137 -4 -201 -82q-66 -77 -66 -169q2 -108 62 -168q57 -65 117 -99zM436 786q-35 19 -90 60q-8 -4 -19 -10.5t-24 -16.5q-14 -9 -27.5 -21t-27.5 -26
q-62 -55 -64 -149q0 -92 58 -150q28 -31 67 -61.5t90 -61.5l230 -139q23 -14 44.5 -27.5t43.5 -27.5q55 36 100 94q43 55 45 143q0 82 -45 139q-23 26 -54 51t-71 48z" />
    <glyph glyph-name="dieresis" unicode="&#xa8;" horiz-adv-x="569" 
d="M96 1462q44 0 76 -29q30 -31 31 -77q0 -45 -29 -74q-32 -33 -78 -33q-45 0 -73 33q-32 29 -33 74q2 47 33 77q29 29 73 29zM473 1462q44 0 76 -29q28 -28 31 -77q0 -45 -29 -74q-32 -33 -78 -33t-74 33q-32 29 -32 74q0 47 32 77q29 29 74 29z" />
    <glyph glyph-name="copyright" unicode="&#xa9;" horiz-adv-x="1706" 
d="M88 729q5 328 225 545q217 217 541 221q327 -4 545 -221q217 -218 221 -545q-4 -324 -221 -541q-217 -220 -545 -225q-324 10 -541 227q-221 215 -225 539zM129 729q5 -307 213 -512q205 -208 512 -213q309 5 514 213q207 205 211 512q-4 309 -211 514q-205 207 -514 211
q-307 -4 -512 -211q-208 -205 -213 -514zM1126 1171v-256h-8q-19 107 -78 187q-58 84 -174 86q-83 -2 -123 -33q-41 -28 -55 -59q-14 -27 -24 -70q-2 -11 -3.5 -22t-3.5 -23q-3 -13 -5.5 -25t-4.5 -24q-5 -54 -7.5 -103t-2.5 -94q-2 -216 37 -323q40 -115 190 -115
q203 -6 275 258h10v-258h-10q-4 5 -8 8l-7 8q-7 4 -32 4q-17 0 -78 -14q-5 -2 -18.5 -4.5t-33.5 -5.5q-37 -10 -92 -10q-174 0 -288 118q-117 117 -119 322q4 229 137 354q128 125 264 125q35 0 72 -8q32 -10 78 -29q55 -18 67 -16q30 0 37 22h8z" />
    <glyph glyph-name="ordfeminine" unicode="&#xaa;" horiz-adv-x="641" 
d="M520 991q0 -44 10 -57q8 -17 23 -17q17 0 31 15q10 10 18 24l12 -6q-10 -22 -26 -35q-17 -14 -62 -14q-58 1 -86 25q-24 18 -35 34q-17 -28 -51 -47q-32 -20 -96 -20q-88 0 -145 39q-64 37 -64 98q0 62 49 90t150 51q46 13 76 29q30 17 43 35q22 37 22 94q0 59 -12 94
q-17 35 -76 35q-55 0 -51 -43q0 -26 4 -43q-2 -29 -27 -35q-24 -7 -37 -6q-17 0 -43 8q-26 6 -26 29q0 39 47 72q46 33 125 34q87 -2 133 -34q43 -34 55 -60q37 -51 39 -174v-215zM387 1237q-38 -53 -104 -76q-52 -18 -72 -41q-23 -26 -23 -92t23 -92q19 -27 65 -27
q52 0 78 23q28 20 41 43q-5 23 -7 38t-1 23v201z" />
    <glyph glyph-name="guillemotleft" unicode="&#xab;" horiz-adv-x="909" 
d="M766 160q-124 18 -221 92q-97 70 -99 199q2 129 99 202q93 72 221 86l6 -22q-17 -2 -45 -15q-16 -7 -31 -18t-30 -25q-29 -26 -50 -77q-24 -53 -24 -131t24 -127q19 -50 50 -80q16 -14 31.5 -24t29.5 -17q28 -15 45 -21zM463 160q-124 18 -221 92q-97 70 -99 199
q2 129 99 202q93 72 221 86l6 -22q-17 -2 -45 -15q-16 -7 -31 -18t-31 -25q-27 -25 -49 -77q-24 -53 -24 -131t24 -127q21 -52 49 -80q30 -27 62 -41q28 -15 45 -21z" />
    <glyph glyph-name="logicalnot" unicode="&#xac;" 
d="M1057 297v352h-942v37h983v-389h-41z" />
    <glyph glyph-name="registered" unicode="&#xae;" horiz-adv-x="1003" 
d="M119 1112q1 163 112 272q109 109 271 111q164 -2 272 -111q109 -108 111 -272q-2 -162 -111 -270q-108 -111 -272 -113q-162 2 -271 113q-110 109 -112 270zM379 924v393h-51v6h98q9 0 18 0.5t17 1.5q64 0 121 -16q59 -19 61 -88q-2 -39 -33 -60q-36 -20 -69 -29v-2
q84 -12 102 -51q16 -33 14 -88q-5 -68 33 -69q25 0 31 14l6 -6q-12 -17 -51 -17q-57 0 -76 33q-20 29 -18 68q0 50 -9 82q-11 32 -61 32h-61v-204h51v-7h-174v7h51zM512 1135q22 0 41 16q16 16 16 70q0 38 -14 69q-17 29 -61 29q-14 -1 -24.5 -1.5t-18.5 -0.5v-182h61z
M139 1112q2 -155 107 -256q103 -105 256 -106q154 2 258 106q102 102 104 256q-2 156 -104 258t-258 104q-154 -2 -256 -104q-105 -101 -107 -258z" />
    <glyph glyph-name="macron" unicode="&#xaf;" horiz-adv-x="569" 
d="M-2 1296h573v-63h-573v63z" />
    <glyph glyph-name="degree" unicode="&#xb0;" horiz-adv-x="819" 
d="M117 1182q2 128 86 208q84 82 207 84q127 -1 208 -84q83 -81 84 -208q-2 -123 -84 -207q-80 -84 -208 -86q-123 2 -207 86t-86 207zM158 1182q0 -107 75 -177q70 -75 177 -75q106 0 180 75q69 69 71 177q-2 108 -71 180q-72 69 -180 71q-108 -2 -177 -71
q-75 -74 -75 -180z" />
    <glyph glyph-name="plusminus" unicode="&#xb1;" 
d="M586 135v404h-471v36h471v408h41v-408h471v-36h-471v-404h-41zM115 0v37h983v-37h-983z" />
    <glyph glyph-name="twosuperior" unicode="&#xb2;" horiz-adv-x="682" 
d="M57 604q191 174 260 266q117 166 117 365q0 50 -12 106q-14 55 -60 90q-41 27 -88 27q-59 0 -59 -39q1 -26 6 -49q0 -19 -20 -27q-24 -8 -43 -8q-20 -2 -39 6q-27 6 -27 35q0 41 53 70q49 28 134 28q135 -1 212 -75q76 -72 76 -164q-2 -151 -184 -336
q-107 -113 -213 -213h250q69 -2 106 25q37 26 47 98h17v-219h-533v14z" />
    <glyph glyph-name="threesuperior" unicode="&#xb3;" horiz-adv-x="682" 
d="M192 1024q60 51 136 76q39 12 63 49q23 38 23 133q0 105 -29 143q-32 33 -80 33q-22 0 -39 -4q-22 -6 -22 -27q0 -4 8 -18q4 -13 4 -25q-2 -20 -20 -26q-17 -4 -33 -4q-5 0 -13 1t-18 3q-23 6 -23 26q0 26 39 58q39 30 119 32q91 0 156 -51q61 -51 63 -135
q-2 -83 -57 -123q-28 -22 -59.5 -40.5t-67.5 -32.5q109 -9 178 -78q72 -74 74 -181q0 -97 -72 -176q-71 -84 -211 -86q-107 2 -153 43q-47 39 -47 64q0 14 14 26q14 11 51 11q8 0 17 -0.5t20 -1.5q20 -5 20 -23q-2 -12 -4 -23l-4 -22q0 -29 31 -41q28 -16 74 -16
q72 -1 98 55q18 35 27 92q6 58 6 115q0 118 -27 174q-32 51 -92 51q-47 -2 -84 -24q-20 -13 -33 -22.5t-20 -16.5z" />
    <glyph glyph-name="acute" unicode="&#xb4;" horiz-adv-x="569" 
d="M448 1454q66 85 109 84q35 0 55 -23q21 -23 21 -49q0 -24 -10 -37q-7 -7 -13.5 -12.5t-13.5 -9.5l-373 -254h-24z" />
    <glyph glyph-name="mu" unicode="&#xb5;" 
d="M201 870h-148v23h352v-627q-2 -113 37 -186q35 -78 131 -80q56 0 99 43q41 41 67 102q51 133 51 265v460h-143v23h348v-870h148v-23h-353v223h-4q-6 -26 -14 -50t-18 -46q-19 -41 -50 -78q-55 -69 -131 -72q-77 3 -114 43q-39 37 -49 68h-5v-678h-204v1460z" />
    <glyph glyph-name="paragraph" unicode="&#xb6;" horiz-adv-x="1229" 
d="M1005 1429v-1126q8 -382 -212 -557q-58 -38 -112.5 -63.5t-107.5 -36.5q-26 -7 -49 -11t-45 -6q-44 -6 -71 -6q-42 1 -74 7.5t-55 17.5q-51 23 -74 53q-41 67 -39 102q0 54 33 80q28 25 75 25q84 0 86 -62q-2 -16 -12 -53q-12 -38 -12 -53q0 -14 14 -37q16 -20 51 -22
q30 0 80 30q49 33 88 123q14 42 23.5 94.5t13.5 118.5q6 127 6 256v291q-32 1 -67 3.5t-74 6.5q-78 7 -164 39q-106 45 -178 147q-76 103 -76 242q4 258 230 367q92 41 176 51q42 4 87.5 6t96.5 2h522v-29h-160zM643 303q1 -148 -7.5 -259.5t-27.5 -192.5
q-40 -160 -198 -199q151 10 239 74q88 62 125 159q19 48 31.5 100t17.5 109q6 109 6 209v1126h-186v-1126z" />
    <glyph glyph-name="cedilla" unicode="&#xb8;" horiz-adv-x="569" 
d="M362 0h41l-147 -158q18 10 45 21q23 10 66 10q81 0 129 -51q47 -52 49 -129q-2 -90 -66 -144q-63 -56 -157 -57q-49 0 -86 19q-41 16 -84 45l18 26q24 -16 61 -30q17 -8 37 -13t43 -6q70 2 92 51q19 44 19 105q0 56 -19 98q-20 45 -84 45q-26 0 -45 -6
q-10 -5 -19.5 -10.5t-18.5 -10.5l-29 31z" />
    <glyph glyph-name="onesuperior" unicode="&#xb9;" horiz-adv-x="682" 
d="M440 606h148v-16h-418v16h147v764q-51 -31 -97.5 -55.5t-88.5 -44.5l-12 16q147 72 207 117q32 22 53.5 39.5t34.5 31.5h26v-868z" />
    <glyph glyph-name="ordmasculine" unicode="&#xba;" horiz-adv-x="715" 
d="M651 1184q-4 -130 -94 -209q-91 -82 -199 -82q-105 0 -196 82q-96 78 -99 209q3 131 99 211q92 77 196 79q107 -2 199 -79q90 -80 94 -211zM356 909q107 0 129 76q13 37 15 88q1 25 1.5 52.5t0.5 58.5q1 66 -3 115.5t-14 84.5q-12 37 -43 56q-30 18 -86 18
q-96 0 -120 -70q-15 -31 -17 -86q-6 -51 -6 -118q-1 -66 4.5 -115.5t18.5 -85.5q24 -74 120 -74z" />
    <glyph glyph-name="guillemotright" unicode="&#xbb;" horiz-adv-x="909" 
d="M137 182q21 6 51 21q29 14 58 41q33 28 51 80q20 52 20 127q0 76 -20 131q-18 51 -51 77q-15 14 -29.5 25t-28.5 18q-30 13 -51 15l6 22q129 -14 222 -86q96 -73 98 -202q-2 -129 -98 -199q-95 -74 -222 -92zM440 182q21 6 51 21q29 14 58 41q33 28 51 80q20 52 20 127
q0 76 -20 131q-18 51 -51 77q-15 14 -29.5 25t-28.5 18q-30 13 -51 15l6 22q129 -14 222 -86q96 -73 98 -202q-2 -129 -98 -199q-95 -74 -222 -92z" />
    <glyph glyph-name="onequarter" unicode="&#xbc;" horiz-adv-x="1708" 
d="M1257 1474l37 -16l-770 -1489l-37 17zM489 606h148v-16h-418v16h148v764q-52 -31 -98.5 -55.5t-88.5 -44.5l-12 16q147 72 207 117q32 22 53.5 39.5t34.5 31.5h26v-868zM1407 229h100v-16h-100v-197h100v-16h-325v16h102v197h-287l340 631q15 40 49 41h78q27 -2 27 -17
q-2 -20 -14 -32l-453 -607h260v222q59 8 86 45q11 16 19 31.5t12 31.5h6v-330z" />
    <glyph glyph-name="onehalf" unicode="&#xbd;" horiz-adv-x="1708" 
d="M1180 1474l36 -16l-770 -1489l-36 17zM489 606h148v-16h-418v16h148v764q-52 -31 -98.5 -55.5t-88.5 -44.5l-12 16q147 72 207 117q32 22 53.5 39.5t34.5 31.5h26v-868zM975 20q97 88 161 154.5t99 112.5q117 166 117 364q0 54 -13 107q-14 56 -59 90q-41 26 -88 26
q-60 0 -60 -38q2 -14 3.5 -26.5t3.5 -23.5q0 -20 -21 -26q-22 -8 -43 -8q-18 -2 -39 6q-26 6 -26 35q0 40 53 69q50 29 133 29q134 -2 213 -76q76 -72 76 -164q-2 -153 -185 -336q-107 -113 -213 -213h250q68 -1 107 25q36 26 47 98h16v-219h-532v14z" />
    <glyph glyph-name="threequarters" unicode="&#xbe;" horiz-adv-x="1708" 
d="M1407 229h100v-16h-100v-197h100v-16h-325v16h102v197h-287l340 631q15 40 49 41h78q27 -2 27 -17q-2 -20 -14 -32l-453 -607h260v222q59 8 86 45q11 16 19 31.5t12 31.5h6v-330zM221 1024q60 51 135 76q39 12 64 49q22 37 22 133q0 106 -28 143q-32 33 -80 33
q-24 0 -39 -4q-23 -6 -23 -27q0 -5 9 -18q4 -13 4 -25q-2 -20 -21 -26q-15 -4 -33 -4q-15 0 -30 4q-23 6 -23 26q0 26 39 58q39 30 119 32q92 0 155 -51q62 -52 64 -135q-2 -83 -57 -123q-28 -23 -60 -41t-67 -32q108 -9 178 -78q71 -74 74 -181q0 -97 -72 -176
q-71 -84 -211 -86q-108 2 -154 43q-47 39 -47 64q0 14 15 26q14 11 51 11q8 0 17 -0.5t20 -1.5q20 -5 20 -23q-2 -12 -4 -23l-4 -22q0 -29 31 -41q28 -16 73 -16q74 -2 99 55q10 18 16 41t10 51q6 58 6 115q0 116 -26 174q-32 51 -92 51q-47 -2 -84 -24q-39 -26 -54 -39z
M1255 1474l37 -16l-770 -1489l-37 17z" />
    <glyph glyph-name="questiondown" unicode="&#xbf;" horiz-adv-x="909" 
d="M582 491v-522h-23q-31 65 -70 84q-41 15 -71 15q-87 0 -115 -82q-33 -81 -31 -275q0 -191 31 -262q29 -72 98 -69q45 2 82 20q33 18 35 53q0 23 -27 74q-22 46 -20 72q2 53 41 65q17 5 29.5 7t19.5 1h27q8 -1 16.5 -3.5t18.5 -6.5q18 -8 34 -27q13 -16 13 -53
q0 -70 -66 -143q-67 -78 -205 -82q-131 2 -211 94q-84 90 -86 268q2 180 86 279q84 100 207 102q70 -2 107 -24q37 -25 57 -53v468h23zM692 754q0 -53 -33 -84q-34 -37 -88 -37q-50 0 -84 37q-36 31 -36 84t36 88q35 32 84 32q54 0 88 -34q33 -35 33 -86z" />
    <glyph glyph-name="Agrave" unicode="&#xc0;" horiz-adv-x="1403" 
d="M690 1513h17l595 -1490h148v-23h-619v23h197l-199 514h-501l-201 -514h176v-23h-350v23h145zM819 559l-242 608l-239 -608h481zM832 1556l-372 254q-7 4 -12.5 9.5t-10.5 12.5q-12 12 -14 37q0 27 22 49q23 23 54 23q29 0 51 -16q10 -11 24 -28t33 -40l250 -301h-25z" />
    <glyph glyph-name="Aacute" unicode="&#xc1;" horiz-adv-x="1403" 
d="M690 1513h17l595 -1490h148v-23h-619v23h197l-199 514h-501l-201 -514h176v-23h-350v23h145zM819 559l-242 608l-239 -608h481zM887 1857q66 85 109 84q35 0 55 -23q21 -23 21 -49q0 -24 -10 -37q-7 -7 -13.5 -12.5t-13.5 -9.5l-373 -254h-24z" />
    <glyph glyph-name="Acircumflex" unicode="&#xc2;" horiz-adv-x="1403" 
d="M690 1513h17l595 -1490h148v-23h-619v23h197l-199 514h-501l-201 -514h176v-23h-350v23h145zM819 559l-242 608l-239 -608h481zM657 1904h119l240 -348h-25l-274 221l-275 -221h-24z" />
    <glyph glyph-name="Atilde" unicode="&#xc3;" horiz-adv-x="1403" 
d="M690 1513h17l595 -1490h148v-23h-619v23h197l-199 514h-501l-201 -514h176v-23h-350v23h145zM819 559l-242 608l-239 -608h481zM382 1644q35 130 98 172q63 37 117 35q26 0 53 -6q28 -10 70 -33l45 -23q58 -35 117 -36q63 0 96 38q33 33 49 66h22q-24 -95 -77 -154
q-56 -59 -144 -59q-52 0 -110 31l-70 35q-49 28 -106 30q-99 -2 -138 -96h-22z" />
    <glyph glyph-name="Adieresis" unicode="&#xc4;" horiz-adv-x="1403" 
d="M690 1513h17l595 -1490h148v-23h-619v23h197l-199 514h-501l-201 -514h176v-23h-350v23h145zM819 559l-242 608l-239 -608h481zM529 1865q44 0 76 -29q30 -31 31 -77q0 -45 -29 -74q-32 -33 -78 -33q-45 0 -73 33q-32 29 -33 74q2 47 33 77q29 29 73 29zM906 1865
q44 0 76 -29q28 -28 31 -77q0 -45 -29 -74q-32 -33 -78 -33t-74 33q-32 29 -32 74q0 47 32 77q29 29 74 29z" />
    <glyph glyph-name="Aring" unicode="&#xc5;" horiz-adv-x="1403" 
d="M690 1513h17l595 -1490h148v-23h-619v23h197l-199 514h-501l-201 -514h176v-23h-350v23h145zM819 559l-242 608l-239 -608h481zM523 1751q2 88 68 137q65 47 129 47q69 0 131 -47q63 -49 65 -137q-2 -86 -63 -135q-61 -52 -133 -52q-81 0 -136 54q-59 49 -61 133z
M822 1753q-2 101 -31 133q-28 28 -71 27q-15 0 -37 -5q-18 -4 -33 -22q-16 -16 -23 -47q-10 -30 -10 -86q-4 -166 103 -166q106 0 102 166z" />
    <glyph glyph-name="AE" unicode="&#xc6;" horiz-adv-x="1933" 
d="M885 1436h-209v22h1089v-352h-16q-21 64 -51 123q-29 59 -78 104q-25 23 -54.5 42.5t-64.5 33.5q-72 27 -176 27h-162v-672q51 -2 101 6q49 4 92 31q46 26 75 86q31 54 43 162h17v-598h-17q-5 55 -15 97.5t-26 71.5q-32 59 -79 87q-43 25 -95 30q-25 2 -49 3t-47 1v-718
h205q158 -3 268 86q111 86 180 301h17v-410h-1143v23h219v718h-405l-414 -718h232v-23h-388v23h129zM909 764v672l-391 -672h391z" />
    <glyph glyph-name="Ccedilla" unicode="&#xc7;" horiz-adv-x="1366" 
d="M1255 -14h-16q-4 8 -10.5 14.5t-14.5 11.5q-17 11 -55 11q-11 0 -23 -1.5t-26 -3.5q-30 -6 -80 -22q-13 -2 -34.5 -6t-53.5 -10q-34 -8 -72 -12t-80 -5l-114 -121q18 10 45 21q21 10 65 10q82 0 129 -51q47 -53 50 -129q-3 -90 -66 -144q-63 -55 -158 -57q-49 0 -86 19
q-41 16 -84 45l19 26q26 -17 61 -30q17 -8 37 -13t43 -6q70 2 92 51q19 44 19 105q0 56 -19 98q-20 45 -84 45q-26 0 -45 -6l-39 -21l-28 31l123 127q-277 19 -455 211q-182 194 -184 524q8 381 227 590q213 206 442 207q33 0 63 -3.5t58 -10.5q52 -17 129 -48
q98 -32 111 -28q26 0 41 12q12 9 20 27h16v-426h-16q-17 88 -49.5 165t-81.5 146q-98 139 -289 143q-137 -2 -202 -53q-68 -53 -93 -102q-52 -103 -69 -275q-8 -88 -12.5 -168.5t-4.5 -156.5q-4 -406 66 -553q67 -176 313 -178q337 -9 459 432h16v-432z" />
    <glyph glyph-name="Egrave" unicode="&#xc8;" horiz-adv-x="1403" 
d="M1294 0h-1208v23h184v1413h-184v22h1089v-352h-16q-20 64 -51 123q-29 59 -78 104q-25 23 -54.5 42.5t-64.5 33.5q-71 27 -176 27h-211v-672q53 -2 113 6q55 4 108 31q26 13 49 34t42 52q17 28 29.5 68t19.5 94h16v-598h-16q-11 110 -49 169q-39 60 -93 87
q-53 25 -108 30q-30 2 -57.5 3t-53.5 1v-718h305q159 -3 269 86q110 86 180 301h16v-410zM827 1556l-372 254q-7 4 -12.5 9.5t-10.5 12.5q-12 12 -14 37q0 27 22 49q23 23 54 23q29 0 51 -16q10 -11 24 -28t33 -40l250 -301h-25z" />
    <glyph glyph-name="Eacute" unicode="&#xc9;" horiz-adv-x="1403" 
d="M1294 0h-1208v23h184v1413h-184v22h1089v-352h-16q-20 64 -51 123q-29 59 -78 104q-25 23 -54.5 42.5t-64.5 33.5q-71 27 -176 27h-211v-672q53 -2 113 6q55 4 108 31q26 13 49 34t42 52q17 28 29.5 68t19.5 94h16v-598h-16q-11 110 -49 169q-39 60 -93 87
q-53 25 -108 30q-30 2 -57.5 3t-53.5 1v-718h305q159 -3 269 86q110 86 180 301h16v-410zM881 1857q66 85 109 84q35 0 55 -23q21 -23 21 -49q0 -24 -10 -37q-7 -7 -13.5 -12.5t-13.5 -9.5l-373 -254h-24z" />
    <glyph glyph-name="Ecircumflex" unicode="&#xca;" horiz-adv-x="1403" 
d="M1294 0h-1208v23h184v1413h-184v22h1089v-352h-16q-20 64 -51 123q-29 59 -78 104q-25 23 -54.5 42.5t-64.5 33.5q-71 27 -176 27h-211v-672q53 -2 113 6q55 4 108 31q26 13 49 34t42 52q17 28 29.5 68t19.5 94h16v-598h-16q-11 110 -49 169q-39 60 -93 87
q-53 25 -108 30q-30 2 -57.5 3t-53.5 1v-718h305q159 -3 269 86q110 86 180 301h16v-410zM651 1904h119l240 -348h-25l-274 221l-275 -221h-24z" />
    <glyph glyph-name="Edieresis" unicode="&#xcb;" horiz-adv-x="1403" 
d="M1294 0h-1208v23h184v1413h-184v22h1089v-352h-16q-20 64 -51 123q-29 59 -78 104q-25 23 -54.5 42.5t-64.5 33.5q-71 27 -176 27h-211v-672q53 -2 113 6q55 4 108 31q26 13 49 34t42 52q17 28 29.5 68t19.5 94h16v-598h-16q-11 110 -49 169q-39 60 -93 87
q-53 25 -108 30q-30 2 -57.5 3t-53.5 1v-718h305q159 -3 269 86q110 86 180 301h16v-410zM524 1865q44 0 76 -29q30 -31 31 -77q0 -45 -29 -74q-32 -33 -78 -33q-45 0 -73 33q-32 29 -33 74q2 47 33 77q29 29 73 29zM901 1865q44 0 76 -29q28 -28 31 -77q0 -45 -29 -74
q-32 -33 -78 -33t-74 33q-32 29 -32 74q0 47 32 77q29 29 74 29z" />
    <glyph glyph-name="Igrave" unicode="&#xcc;" horiz-adv-x="836" 
d="M291 1436h-185v22h623v-22h-184v-1413h184v-23h-623v23h185v1413zM531 1556l-372 254q-7 4 -12.5 9.5t-10.5 12.5q-12 12 -14 37q0 27 22 49q23 23 54 23q29 0 51 -16q10 -11 24 -28t33 -40l250 -301h-25z" />
    <glyph glyph-name="Iacute" unicode="&#xcd;" horiz-adv-x="836" 
d="M291 1436h-185v22h623v-22h-184v-1413h184v-23h-623v23h185v1413zM587 1857q66 85 109 84q35 0 55 -23q21 -23 21 -49q0 -24 -10 -37q-7 -7 -13.5 -12.5t-13.5 -9.5l-373 -254h-24z" />
    <glyph glyph-name="Icircumflex" unicode="&#xce;" horiz-adv-x="836" 
d="M291 1436h-185v22h623v-22h-184v-1413h184v-23h-623v23h185v1413zM357 1904h119l240 -348h-25l-274 221l-275 -221h-24z" />
    <glyph glyph-name="Idieresis" unicode="&#xcf;" horiz-adv-x="836" 
d="M291 1436h-185v22h623v-22h-184v-1413h184v-23h-623v23h185v1413zM228 1865q44 0 76 -29q30 -31 31 -77q0 -45 -29 -74q-32 -33 -78 -33q-45 0 -73 33q-32 29 -33 74q2 47 33 77q29 29 73 29zM605 1865q44 0 76 -29q28 -28 31 -77q0 -45 -29 -74q-32 -33 -78 -33t-74 33
q-32 29 -32 74q0 47 32 77q29 29 74 29z" />
    <glyph glyph-name="Eth" unicode="&#xd0;" horiz-adv-x="1630" 
d="M270 770h-184v23h184v643h-184v22h375q32 0 64.5 1t64.5 3t64.5 3t64.5 1q342 -6 553 -229q213 -222 217 -535q0 -260 -189 -477q-188 -225 -583 -233q-30 0 -60 1t-59 3t-59.5 3t-61.5 1h-391v23h184v747zM524 25q57 -5 108 -8t99 -3q153 0 248 66q46 31 81 71.5
t58 92.5q49 102 66 227q7 63 10.5 125t3.5 125q0 72 -3.5 139t-10.5 133q-8 64 -25 121.5t-43 110.5q-50 102 -147 161q-100 58 -258 58q-42 -1 -88.5 -3.5t-98.5 -7.5v-640h293v-23h-293v-745z" />
    <glyph glyph-name="Ntilde" unicode="&#xd1;" horiz-adv-x="1479" 
d="M262 1436h-184v22h395l721 -1028v1006h-184v22h391v-22h-185v-1452h-16l-915 1302v-1263h186v-23h-393v23h184v1413zM437 1644q35 130 98 172q63 37 117 35q26 0 53 -6q28 -10 70 -33l45 -23q58 -35 117 -36q63 0 96 38q33 33 49 66h22q-24 -95 -77 -154
q-56 -59 -144 -59q-52 0 -110 31l-70 35q-49 28 -106 30q-99 -2 -138 -96h-22z" />
    <glyph glyph-name="Ograve" unicode="&#xd2;" horiz-adv-x="1630" 
d="M111 729q6 352 225 557q213 207 479 209q271 -2 481 -209q217 -205 224 -557q-8 -350 -228 -555q-215 -209 -477 -211q-257 2 -475 211q-223 205 -229 555zM401 729q-1 -45 3 -112.5t14 -161.5q10 -86 30 -172q22 -88 58 -152q51 -78 131 -111q77 -34 178 -34
q103 0 180 34q79 33 129 111q20 34 35.5 71.5t26.5 80.5q23 84 30 172q8 94 11 161.5t2 112.5q1 46 -2 114.5t-11 159.5q-7 89 -30 175q-11 42 -26.5 78.5t-35.5 70.5q-46 80 -129 115q-80 30 -180 30t-178 -30q-79 -34 -131 -115q-36 -64 -58 -149q-20 -84 -30 -175
t-14 -159.5t-3 -114.5zM943 1556l-372 254q-7 4 -12.5 9.5t-10.5 12.5q-12 12 -14 37q0 27 22 49q23 23 54 23q29 0 51 -16q10 -11 24 -28t33 -40l250 -301h-25z" />
    <glyph glyph-name="Oacute" unicode="&#xd3;" horiz-adv-x="1630" 
d="M111 729q6 352 225 557q213 207 479 209q271 -2 481 -209q217 -205 224 -557q-8 -350 -228 -555q-215 -209 -477 -211q-257 2 -475 211q-223 205 -229 555zM401 729q-1 -45 3 -112.5t14 -161.5q10 -86 30 -172q22 -88 58 -152q51 -78 131 -111q77 -34 178 -34
q103 0 180 34q79 33 129 111q20 34 35.5 71.5t26.5 80.5q23 84 30 172q8 94 11 161.5t2 112.5q1 46 -2 114.5t-11 159.5q-7 89 -30 175q-11 42 -26.5 78.5t-35.5 70.5q-46 80 -129 115q-80 30 -180 30t-178 -30q-79 -34 -131 -115q-36 -64 -58 -149q-20 -84 -30 -175
t-14 -159.5t-3 -114.5zM997 1857q66 85 109 84q35 0 55 -23q21 -23 21 -49q0 -24 -10 -37q-7 -7 -13.5 -12.5t-13.5 -9.5l-373 -254h-24z" />
    <glyph glyph-name="Ocircumflex" unicode="&#xd4;" horiz-adv-x="1630" 
d="M111 729q6 352 225 557q213 207 479 209q271 -2 481 -209q217 -205 224 -557q-8 -350 -228 -555q-215 -209 -477 -211q-257 2 -475 211q-223 205 -229 555zM401 729q-1 -45 3 -112.5t14 -161.5q10 -86 30 -172q22 -88 58 -152q51 -78 131 -111q77 -34 178 -34
q103 0 180 34q79 33 129 111q20 34 35.5 71.5t26.5 80.5q23 84 30 172q8 94 11 161.5t2 112.5q1 46 -2 114.5t-11 159.5q-7 89 -30 175q-11 42 -26.5 78.5t-35.5 70.5q-46 80 -129 115q-80 30 -180 30t-178 -30q-79 -34 -131 -115q-36 -64 -58 -149q-20 -84 -30 -175
t-14 -159.5t-3 -114.5zM767 1904h119l240 -348h-25l-274 221l-275 -221h-24z" />
    <glyph glyph-name="Otilde" unicode="&#xd5;" horiz-adv-x="1630" 
d="M111 729q6 352 225 557q213 207 479 209q271 -2 481 -209q217 -205 224 -557q-8 -350 -228 -555q-215 -209 -477 -211q-257 2 -475 211q-223 205 -229 555zM401 729q-1 -45 3 -112.5t14 -161.5q10 -86 30 -172q22 -88 58 -152q51 -78 131 -111q77 -34 178 -34
q103 0 180 34q79 33 129 111q20 34 35.5 71.5t26.5 80.5q23 84 30 172q8 94 11 161.5t2 112.5q1 46 -2 114.5t-11 159.5q-7 89 -30 175q-11 42 -26.5 78.5t-35.5 70.5q-46 80 -129 115q-80 30 -180 30t-178 -30q-79 -34 -131 -115q-36 -64 -58 -149q-20 -84 -30 -175
t-14 -159.5t-3 -114.5zM514 1644q35 130 98 172q63 37 117 35q26 0 53 -6q28 -10 70 -33l45 -23q58 -35 117 -36q63 0 96 38q33 33 49 66h22q-24 -95 -77 -154q-56 -59 -144 -59q-52 0 -110 31l-70 35q-49 28 -106 30q-99 -2 -138 -96h-22z" />
    <glyph glyph-name="Odieresis" unicode="&#xd6;" horiz-adv-x="1630" 
d="M111 729q6 352 225 557q213 207 479 209q271 -2 481 -209q217 -205 224 -557q-8 -350 -228 -555q-215 -209 -477 -211q-257 2 -475 211q-223 205 -229 555zM401 729q-1 -45 3 -112.5t14 -161.5q10 -86 30 -172q22 -88 58 -152q51 -78 131 -111q77 -34 178 -34
q103 0 180 34q79 33 129 111q20 34 35.5 71.5t26.5 80.5q23 84 30 172q8 94 11 161.5t2 112.5q1 46 -2 114.5t-11 159.5q-7 89 -30 175q-11 42 -26.5 78.5t-35.5 70.5q-46 80 -129 115q-80 30 -180 30t-178 -30q-79 -34 -131 -115q-36 -64 -58 -149q-20 -84 -30 -175
t-14 -159.5t-3 -114.5zM640 1865q44 0 76 -29q30 -31 31 -77q0 -45 -29 -74q-32 -33 -78 -33q-45 0 -73 33q-32 29 -33 74q2 47 33 77q29 29 73 29zM1017 1865q44 0 76 -29q28 -28 31 -77q0 -45 -29 -74q-32 -33 -78 -33t-74 33q-32 29 -32 74q0 47 32 77q29 29 74 29z" />
    <glyph glyph-name="multiply" unicode="&#xd7;" 
d="M1059 68l-27 -29l-426 426l-424 -426l-26 29l424 423l-424 424l26 29l424 -426l426 426l27 -29l-424 -424z" />
    <glyph glyph-name="Oslash" unicode="&#xd8;" horiz-adv-x="1630" 
d="M1100 1362q-49 61 -123 88q-70 22 -162 22q-100 0 -178 -30q-79 -34 -131 -115q-36 -64 -58 -149q-20 -84 -30 -175t-14 -159.5t-3 -114.5q-1 -88 15 -268q10 -86 30 -172q10 -42 23.5 -79.5t32.5 -70.5zM520 113q49 -66 127 -97q76 -30 168 -30q103 0 180 34
q79 33 129 111q20 34 35.5 71.5t26.5 80.5q23 84 30 172q8 94 11 161.5t2 112.5q1 46 -2 114.5t-11 159.5q-7 89 -30 175q-11 42 -26.5 78.5t-35.5 70.5q-2 4 -6 8zM469 72q-155 96 -252 264q-104 169 -106 393q6 352 225 557q213 207 479 209q160 0 309 -84l103 211l24 -12
l-102 -211q162 -91 266 -262q102 -173 105 -408q-8 -350 -228 -555q-215 -209 -477 -211q-165 2 -324 92l-106 -217l-25 13z" />
    <glyph glyph-name="Ugrave" unicode="&#xd9;" horiz-adv-x="1554" 
d="M520 500q-2 -210 37 -328q63 -180 307 -186q191 0 305 102q115 100 117 317v1031h-188v22h397v-22h-186v-1031q-1 -219 -123 -329q-123 -111 -328 -113q-593 -12 -592 541v932h-184v22h625v-22h-187v-936zM969 1556l-372 254q-7 4 -12.5 9.5t-10.5 12.5q-12 12 -14 37
q0 27 22 49q23 23 54 23q29 0 51 -16q10 -11 24 -28t33 -40l250 -301h-25z" />
    <glyph glyph-name="Uacute" unicode="&#xda;" horiz-adv-x="1554" 
d="M520 500q-2 -210 37 -328q63 -180 307 -186q191 0 305 102q115 100 117 317v1031h-188v22h397v-22h-186v-1031q-1 -219 -123 -329q-123 -111 -328 -113q-593 -12 -592 541v932h-184v22h625v-22h-187v-936zM1024 1857q66 85 109 84q35 0 55 -23q21 -23 21 -49
q0 -24 -10 -37q-7 -7 -13.5 -12.5t-13.5 -9.5l-373 -254h-24z" />
    <glyph glyph-name="Ucircumflex" unicode="&#xdb;" horiz-adv-x="1554" 
d="M520 500q-2 -210 37 -328q63 -180 307 -186q191 0 305 102q115 100 117 317v1031h-188v22h397v-22h-186v-1031q-1 -219 -123 -329q-123 -111 -328 -113q-593 -12 -592 541v932h-184v22h625v-22h-187v-936zM795 1904h119l240 -348h-25l-274 221l-275 -221h-24z" />
    <glyph glyph-name="Udieresis" unicode="&#xdc;" horiz-adv-x="1554" 
d="M520 500q-2 -210 37 -328q63 -180 307 -186q191 0 305 102q115 100 117 317v1031h-188v22h397v-22h-186v-1031q-1 -219 -123 -329q-123 -111 -328 -113q-593 -12 -592 541v932h-184v22h625v-22h-187v-936zM666 1865q44 0 76 -29q30 -31 31 -77q0 -45 -29 -74
q-32 -33 -78 -33q-45 0 -73 33q-32 29 -33 74q2 47 33 77q29 29 73 29zM1043 1865q44 0 76 -29q28 -28 31 -77q0 -45 -29 -74q-32 -33 -78 -33t-74 33q-32 29 -32 74q0 47 32 77q29 29 74 29z" />
    <glyph glyph-name="Yacute" unicode="&#xdd;" horiz-adv-x="1366" 
d="M414 23h184v573l-467 840h-158v22h664v-22h-207l399 -729l359 729h-170v22h356v-22h-160l-362 -742v-671h186v-23h-624v23zM867 1857q66 85 109 84q35 0 55 -23q21 -23 21 -49q0 -24 -10 -37q-7 -7 -13.5 -12.5t-13.5 -9.5l-373 -254h-24z" />
    <glyph glyph-name="Thorn" unicode="&#xde;" horiz-adv-x="1403" 
d="M270 1436h-184v22h623v-22h-185v-177q42 4 80.5 5.5t73.5 1.5q232 0 416 -109q186 -115 192 -364q-2 -142 -82 -240q-84 -99 -209 -152q-95 -45 -233 -43q-75 0 -139 29q-32 14 -57 26t-42 23v-413h185v-23h-623v23h184v1413zM524 469q17 -11 40.5 -24t53.5 -29
q57 -33 129 -35q80 0 132 37q52 35 81 92q16 29 26 62.5t15 70.5q5 36 8 73.5t3 76.5q1 187 -70 317q-76 131 -274 133q-19 0 -54.5 -2t-89.5 -6v-766z" />
    <glyph glyph-name="germandbls" unicode="&#xdf;" horiz-adv-x="1290" 
d="M223 1005q0 166 60 271q52 96 159 170q110 74 271 76q83 0 143 -23q55 -23 90 -63q35 -38 49 -84q13 -46 13 -99q-3 -86 -35 -139q-33 -53 -62 -80q-106 -94 -104 -153q-2 -43 37 -86q19 -23 55.5 -59.5t93.5 -90.5q42 -34 76 -69.5t63 -73.5q56 -79 58 -195
q0 -133 -94 -227q-98 -98 -279 -103q-124 3 -203 52q-84 46 -86 135q0 47 27 76q27 28 84 28q54 -2 76 -22q18 -23 18 -47q-2 -29 -16 -56q-17 -26 -17 -63q-2 -29 23 -51q16 -13 43 -19q24 -10 72 -10q203 2 204 205q1 57 -30 117q-20 29 -62.5 73.5t-109.5 104.5
q-54 48 -92 86t-64 69q-51 60 -51 123q0 65 53 115q25 25 59.5 52t79.5 58q14 11 29 22t29 24q28 19 51 51q49 57 51 155q0 43 -10 82q-13 40 -43 78q-31 37 -80 62q-48 22 -125 22q-107 -2 -166 -49q-59 -51 -90 -123q-14 -37 -22.5 -72t-12.5 -69q-4 -36 -6 -65t-2 -52
v-1069h-352v23h147v982z" />
    <glyph glyph-name="agrave" unicode="&#xe0;" horiz-adv-x="985" 
d="M799 125q0 -68 14 -94q12 -26 37 -25q30 0 47 21q7 9 13.5 19.5t13.5 21.5l22 -11q-16 -35 -41 -57q-29 -23 -94 -23q-95 3 -135 39q-21 16 -33 33q-7 9 -11.5 15t-8.5 10q-29 -45 -80 -78q-48 -33 -144 -35q-135 1 -225 66q-92 58 -94 165q0 91 57 138q58 46 180 78
l101 28q105 34 145 94q39 61 39 146q1 55 -4 98t-16 74q-27 59 -117 61q-47 0 -66 -18q-16 -19 -16 -55q1 -37 6 -76q-1 -47 -39 -58q-35 -12 -57 -10q-34 0 -68 10q-39 13 -41 54q0 62 74 118q71 56 197 58q53 0 112 -15q61 -16 113 -65q53 -45 86 -131t33 -223v-373z
M594 534q-29 -47 -66 -73q-42 -26 -94 -51q-40 -16 -67 -33.5t-43 -36.5q-33 -41 -33 -152q0 -110 33 -155q30 -43 100 -43q80 2 121 37q44 32 63 71q-8 37 -11.5 63t-2.5 40v333zM612 1153l-372 254q-7 4 -12.5 9.5t-10.5 12.5q-12 12 -14 37q0 27 22 49q23 23 54 23
q29 0 51 -16q10 -11 24 -28t33 -40l250 -301h-25z" />
    <glyph glyph-name="aacute" unicode="&#xe1;" horiz-adv-x="985" 
d="M799 125q0 -68 14 -94q12 -26 37 -25q30 0 47 21q7 9 13.5 19.5t13.5 21.5l22 -11q-16 -35 -41 -57q-29 -23 -94 -23q-95 3 -135 39q-21 16 -33 33q-7 9 -11.5 15t-8.5 10q-29 -45 -80 -78q-48 -33 -144 -35q-135 1 -225 66q-92 58 -94 165q0 91 57 138q58 46 180 78
l101 28q105 34 145 94q39 61 39 146q1 55 -4 98t-16 74q-27 59 -117 61q-47 0 -66 -18q-16 -19 -16 -55q1 -37 6 -76q-1 -47 -39 -58q-35 -12 -57 -10q-34 0 -68 10q-39 13 -41 54q0 62 74 118q71 56 197 58q53 0 112 -15q61 -16 113 -65q53 -45 86 -131t33 -223v-373z
M594 534q-29 -47 -66 -73q-42 -26 -94 -51q-40 -16 -67 -33.5t-43 -36.5q-33 -41 -33 -152q0 -110 33 -155q30 -43 100 -43q80 2 121 37q44 32 63 71q-8 37 -11.5 63t-2.5 40v333zM668 1454q66 85 109 84q35 0 55 -23q21 -23 21 -49q0 -24 -10 -37q-7 -7 -13.5 -12.5
t-13.5 -9.5l-373 -254h-24z" />
    <glyph glyph-name="acircumflex" unicode="&#xe2;" horiz-adv-x="985" 
d="M799 125q0 -68 14 -94q12 -26 37 -25q30 0 47 21q7 9 13.5 19.5t13.5 21.5l22 -11q-16 -35 -41 -57q-29 -23 -94 -23q-95 3 -135 39q-21 16 -33 33q-7 9 -11.5 15t-8.5 10q-29 -45 -80 -78q-48 -33 -144 -35q-135 1 -225 66q-92 58 -94 165q0 91 57 138q58 46 180 78
l101 28q105 34 145 94q39 61 39 146q1 55 -4 98t-16 74q-27 59 -117 61q-47 0 -66 -18q-16 -19 -16 -55q1 -37 6 -76q-1 -47 -39 -58q-35 -12 -57 -10q-34 0 -68 10q-39 13 -41 54q0 62 74 118q71 56 197 58q53 0 112 -15q61 -16 113 -65q53 -45 86 -131t33 -223v-373z
M594 534q-29 -47 -66 -73q-42 -26 -94 -51q-40 -16 -67 -33.5t-43 -36.5q-33 -41 -33 -152q0 -110 33 -155q30 -43 100 -43q80 2 121 37q44 32 63 71q-8 37 -11.5 63t-2.5 40v333zM438 1501h119l240 -348h-25l-274 221l-275 -221h-24z" />
    <glyph glyph-name="atilde" unicode="&#xe3;" horiz-adv-x="985" 
d="M799 125q0 -68 14 -94q12 -26 37 -25q30 0 47 21q7 9 13.5 19.5t13.5 21.5l22 -11q-16 -35 -41 -57q-29 -23 -94 -23q-95 3 -135 39q-21 16 -33 33q-7 9 -11.5 15t-8.5 10q-29 -45 -80 -78q-48 -33 -144 -35q-135 1 -225 66q-92 58 -94 165q0 91 57 138q58 46 180 78
l101 28q105 34 145 94q39 61 39 146q1 55 -4 98t-16 74q-27 59 -117 61q-47 0 -66 -18q-16 -19 -16 -55q1 -37 6 -76q-1 -47 -39 -58q-35 -12 -57 -10q-34 0 -68 10q-39 13 -41 54q0 62 74 118q71 56 197 58q53 0 112 -15q61 -16 113 -65q53 -45 86 -131t33 -223v-373z
M594 534q-29 -47 -66 -73q-42 -26 -94 -51q-40 -16 -67 -33.5t-43 -36.5q-33 -41 -33 -152q0 -110 33 -155q30 -43 100 -43q80 2 121 37q44 32 63 71q-8 37 -11.5 63t-2.5 40v333zM163 1241q35 130 98 172q63 37 117 35q26 0 53 -6q28 -10 70 -33l45 -23q58 -35 117 -36
q63 0 96 38q33 33 49 66h22q-24 -95 -77 -154q-56 -59 -144 -59q-52 0 -110 31l-70 35q-49 28 -106 30q-99 -2 -138 -96h-22z" />
    <glyph glyph-name="adieresis" unicode="&#xe4;" horiz-adv-x="985" 
d="M799 125q0 -68 14 -94q12 -26 37 -25q30 0 47 21q7 9 13.5 19.5t13.5 21.5l22 -11q-16 -35 -41 -57q-29 -23 -94 -23q-95 3 -135 39q-21 16 -33 33q-7 9 -11.5 15t-8.5 10q-29 -45 -80 -78q-48 -33 -144 -35q-135 1 -225 66q-92 58 -94 165q0 91 57 138q58 46 180 78
l101 28q105 34 145 94q39 61 39 146q1 55 -4 98t-16 74q-27 59 -117 61q-47 0 -66 -18q-16 -19 -16 -55q1 -37 6 -76q-1 -47 -39 -58q-35 -12 -57 -10q-34 0 -68 10q-39 13 -41 54q0 62 74 118q71 56 197 58q53 0 112 -15q61 -16 113 -65q53 -45 86 -131t33 -223v-373z
M594 534q-29 -47 -66 -73q-42 -26 -94 -51q-40 -16 -67 -33.5t-43 -36.5q-33 -41 -33 -152q0 -110 33 -155q30 -43 100 -43q80 2 121 37q44 32 63 71q-8 37 -11.5 63t-2.5 40v333zM309 1462q44 0 76 -29q30 -31 31 -77q0 -45 -29 -74q-32 -33 -78 -33q-45 0 -73 33
q-32 29 -33 74q2 47 33 77q29 29 73 29zM686 1462q44 0 76 -29q28 -28 31 -77q0 -45 -29 -74q-32 -33 -78 -33t-74 33q-32 29 -32 74q0 47 32 77q29 29 74 29z" />
    <glyph glyph-name="aring" unicode="&#xe5;" horiz-adv-x="985" 
d="M799 125q0 -68 14 -94q12 -26 37 -25q30 0 47 21q7 9 13.5 19.5t13.5 21.5l22 -11q-16 -35 -41 -57q-29 -23 -94 -23q-95 3 -135 39q-21 16 -33 33q-7 9 -11.5 15t-8.5 10q-29 -45 -80 -78q-48 -33 -144 -35q-135 1 -225 66q-92 58 -94 165q0 91 57 138q58 46 180 78
l101 28q105 34 145 94q39 61 39 146q1 55 -4 98t-16 74q-27 59 -117 61q-47 0 -66 -18q-16 -19 -16 -55q1 -37 6 -76q-1 -47 -39 -58q-35 -12 -57 -10q-34 0 -68 10q-39 13 -41 54q0 62 74 118q71 56 197 58q53 0 112 -15q61 -16 113 -65q53 -45 86 -131t33 -223v-373z
M594 534q-29 -47 -66 -73q-42 -26 -94 -51q-40 -16 -67 -33.5t-43 -36.5q-33 -41 -33 -152q0 -110 33 -155q30 -43 100 -43q80 2 121 37q44 32 63 71q-8 37 -11.5 63t-2.5 40v333zM304 1360q2 88 68 137q65 47 129 47q69 0 131 -47q63 -49 65 -137q-2 -86 -63 -135
q-61 -52 -133 -52q-81 0 -136 54q-59 49 -61 133zM603 1362q-2 101 -31 133q-28 28 -71 27q-15 0 -37 -5q-18 -4 -33 -22q-16 -16 -23 -47q-10 -30 -10 -86q-4 -166 103 -166q106 0 102 166z" />
    <glyph glyph-name="ae" unicode="&#xe6;" horiz-adv-x="1403" 
d="M776 498q-2 -264 37 -385q39 -129 184 -129q84 0 164 47q78 45 135 145l23 -10q-10 -14 -20.5 -29.5t-22.5 -32.5q-24 -32 -66 -67q-39 -31 -94 -53q-58 -23 -131 -23q-78 0 -139 23q-62 20 -101 49q-41 30 -65 59q-27 28 -39 45q-11 -17 -21 -32.5t-20 -30.5
q-25 -31 -55 -58q-29 -24 -72 -39q-42 -16 -108 -16q-134 2 -218 62q-89 58 -90 165q0 96 66 146q61 46 190 78q27 7 51 14t46 14q42 16 73 33q64 37 97 125v133q1 58 -21 117q-14 28 -45 45q-31 16 -82 16q-10 0 -24.5 -2t-34.5 -6q-19 -6 -31 -18q-16 -15 -16 -39
q2 -43 6 -80v-23q-2 -11 -13 -24q-10 -13 -28 -19q-19 -10 -58 -10q-18 -2 -55 10q-41 10 -43 60q2 86 92 131q86 43 199 43q73 0 123 -15q50 -16 78 -41q15 -11 27 -22.5t20 -24.5q7 -12 12 -22.5t8 -20.5q8 11 18.5 22t22.5 23q28 28 58 48q16 11 34.5 20.5t40.5 17.5
q43 15 94 15q53 0 115 -21q60 -25 115 -75q57 -52 94 -134q19 -43 29 -93.5t12 -110.5h-551zM580 543q-8 -16 -20 -32t-28 -32q-7 -7 -16.5 -15t-21.5 -16q-14 -7 -29.5 -15t-34.5 -17q-42 -17 -71 -36.5t-48 -39.5q-18 -23 -28 -59q-11 -42 -11 -99q0 -102 35 -149
q34 -43 94 -43q87 2 140 55q50 49 84 115q-10 23 -17.5 48.5t-13.5 53.5q-7 28 -10.5 65.5t-3.5 88.5v127zM1122 520v131q0 113 -39 187q-38 69 -123 71q-108 -2 -145 -106q-41 -107 -39 -283h346z" />
    <glyph glyph-name="ccedilla" unicode="&#xe7;" horiz-adv-x="872" 
d="M887 178q-111 -217 -365 -217l-117 -119q11 5 22 10.5t24 10.5q21 10 65 10q82 0 129 -51q47 -52 49 -129q-2 -91 -65 -144q-64 -55 -158 -57q-49 0 -86 19q-41 16 -84 45l18 26q26 -16 62 -30q17 -8 37 -13t43 -6q69 1 92 51q18 46 18 105q0 53 -18 98q-21 45 -84 45
q-27 0 -45 -6q-21 -11 -39 -21l-29 31l125 125q-170 21 -282 139q-119 118 -121 322q2 202 127 354q123 151 329 156q157 -2 234 -64q74 -59 74 -116q-2 -45 -39 -60q-37 -13 -74 -12q-36 0 -72 14q-39 15 -39 60q1 18 3 36t4 37q-4 82 -101 82q-124 0 -170 -108
q-48 -112 -47 -361q0 -272 55 -366q27 -49 70 -70q43 -20 92 -20q111 0 203 53q86 49 139 149z" />
    <glyph glyph-name="egrave" unicode="&#xe8;" horiz-adv-x="948" 
d="M895 178q-46 -104 -141 -160q-99 -56 -213 -57q-187 2 -316 125q-135 118 -137 336q1 219 135 362q130 146 303 148q140 0 252 -109q116 -110 123 -325h-584v-74q0 -42 1.5 -82.5t3.5 -79.5q4 -78 24 -141q23 -62 68 -98q45 -38 127 -39q74 0 174 41q97 43 159 161z
M707 520q1 111 -7.5 187.5t-27.5 119.5q-39 83 -154 82q-67 0 -106 -24q-41 -29 -62 -78q-34 -103 -33 -287h390zM618 1153l-372 254q-7 4 -12.5 9.5t-10.5 12.5q-12 12 -14 37q0 27 22 49q23 23 54 23q29 0 51 -16q10 -11 24 -28t33 -40l250 -301h-25z" />
    <glyph glyph-name="eacute" unicode="&#xe9;" horiz-adv-x="948" 
d="M895 178q-46 -104 -141 -160q-99 -56 -213 -57q-187 2 -316 125q-135 118 -137 336q1 219 135 362q130 146 303 148q140 0 252 -109q116 -110 123 -325h-584v-74q0 -42 1.5 -82.5t3.5 -79.5q4 -78 24 -141q23 -62 68 -98q45 -38 127 -39q74 0 174 41q97 43 159 161z
M707 520q1 111 -7.5 187.5t-27.5 119.5q-39 83 -154 82q-67 0 -106 -24q-41 -29 -62 -78q-34 -103 -33 -287h390zM674 1454q66 85 109 84q35 0 55 -23q21 -23 21 -49q0 -24 -10 -37q-7 -7 -13.5 -12.5t-13.5 -9.5l-373 -254h-24z" />
    <glyph glyph-name="ecircumflex" unicode="&#xea;" horiz-adv-x="948" 
d="M895 178q-46 -104 -141 -160q-99 -56 -213 -57q-187 2 -316 125q-135 118 -137 336q1 219 135 362q130 146 303 148q140 0 252 -109q116 -110 123 -325h-584v-74q0 -42 1.5 -82.5t3.5 -79.5q4 -78 24 -141q23 -62 68 -98q45 -38 127 -39q74 0 174 41q97 43 159 161z
M707 520q1 111 -7.5 187.5t-27.5 119.5q-39 83 -154 82q-67 0 -106 -24q-41 -29 -62 -78q-34 -103 -33 -287h390zM444 1501h119l240 -348h-25l-274 221l-275 -221h-24z" />
    <glyph glyph-name="edieresis" unicode="&#xeb;" horiz-adv-x="948" 
d="M895 178q-46 -104 -141 -160q-99 -56 -213 -57q-187 2 -316 125q-135 118 -137 336q1 219 135 362q130 146 303 148q140 0 252 -109q116 -110 123 -325h-584v-74q0 -42 1.5 -82.5t3.5 -79.5q4 -78 24 -141q23 -62 68 -98q45 -38 127 -39q74 0 174 41q97 43 159 161z
M707 520q1 111 -7.5 187.5t-27.5 119.5q-39 83 -154 82q-67 0 -106 -24q-41 -29 -62 -78q-34 -103 -33 -287h390zM315 1462q44 0 76 -29q30 -31 31 -77q0 -45 -29 -74q-32 -33 -78 -33q-45 0 -73 33q-32 29 -33 74q2 47 33 77q29 29 73 29zM692 1462q44 0 76 -29
q28 -28 31 -77q0 -45 -29 -74q-32 -33 -78 -33t-74 33q-32 29 -32 74q0 47 32 77q29 29 74 29z" />
    <glyph glyph-name="igrave" unicode="&#xec;" horiz-adv-x="645" 
d="M227 870h-147v23h352v-870h148v-23h-500v23h147v847zM437 1153l-372 254q-7 4 -12.5 9.5t-10.5 12.5q-12 12 -14 37q0 27 22 49q23 23 54 23q29 0 51 -16q10 -11 24 -28t33 -40l250 -301h-25z" />
    <glyph glyph-name="iacute" unicode="&#xed;" horiz-adv-x="645" 
d="M227 870h-147v23h352v-870h148v-23h-500v23h147v847zM492 1454q66 85 109 84q35 0 55 -23q21 -23 21 -49q0 -24 -10 -37q-7 -7 -13.5 -12.5t-13.5 -9.5l-373 -254h-24z" />
    <glyph glyph-name="icircumflex" unicode="&#xee;" horiz-adv-x="645" 
d="M227 870h-147v23h352v-870h148v-23h-500v23h147v847zM263 1501h119l240 -348h-25l-274 221l-275 -221h-24z" />
    <glyph glyph-name="idieresis" unicode="&#xef;" horiz-adv-x="645" 
d="M227 870h-147v23h352v-870h148v-23h-500v23h147v847zM134 1462q44 0 76 -29q30 -31 31 -77q0 -45 -29 -74q-32 -33 -78 -33q-45 0 -73 33q-32 29 -33 74q2 47 33 77q29 29 73 29zM511 1462q44 0 76 -29q28 -28 31 -77q0 -45 -29 -74q-32 -33 -78 -33t-74 33
q-32 29 -32 74q0 47 32 77q29 29 74 29z" />
    <glyph glyph-name="eth" unicode="&#xf0;" horiz-adv-x="1100" 
d="M455 1302q-38 34 -73.5 60.5t-68.5 46.5q-34 20 -62.5 35.5t-53.5 27.5l14 23q149 -57 301 -160l244 144l14 -25l-233 -137q90 -65 174 -144q42 -42 79.5 -87t69.5 -97q136 -200 141 -516q-6 -254 -151 -383q-146 -129 -299 -129q-163 2 -301 137q-148 128 -152 348
q4 220 154 353q142 132 299 133q60 0 108 -17q43 -17 72 -45q-14 49 -36.5 99t-51.5 102q-59 102 -170 209l-244 -143l-14 24zM328 446q0 -108 6 -192q4 -86 24 -148q23 -59 68 -90q45 -30 125 -32q84 0 127 34q45 31 65 93q21 61 27 147q1 42 1.5 89t0.5 99
q0 55 -0.5 103.5t-1.5 91.5q-2 45 -8.5 80.5t-16.5 64.5q-20 62 -65 93q-45 30 -129 30q-78 0 -121 -28q-45 -30 -68 -91q-19 -60 -27.5 -146t-6.5 -198z" />
    <glyph glyph-name="ntilde" unicode="&#xf1;" 
d="M223 870h-147v23h352v-156q6 16 13.5 32.5t17.5 33.5q8 16 20 31t27 30q31 31 74 49q38 19 96 19q180 -4 260 -105q53 -65 69 -139q7 -37 10 -75t3 -76v-514h147v-23h-495v23h143v585q2 144 -27 221q-30 78 -129 80q-61 0 -104 -28q-43 -31 -72 -82q-53 -104 -53 -213
v-563h143v-23h-495v23h147v847zM282 1241q35 130 98 172q63 37 117 35q26 0 53 -6q28 -10 70 -33l45 -23q58 -35 117 -36q63 0 96 38q33 33 49 66h22q-24 -95 -77 -154q-56 -59 -144 -59q-52 0 -110 31l-70 35q-49 28 -106 30q-99 -2 -138 -96h-22z" />
    <glyph glyph-name="ograve" unicode="&#xf2;" horiz-adv-x="1100" 
d="M98 446q4 220 154 353q142 132 299 133q161 -2 303 -133q143 -131 147 -353q-5 -217 -147 -350q-141 -134 -303 -135q-163 2 -301 137q-148 128 -152 348zM328 446q0 -108 6 -192q4 -86 24 -148q23 -59 68 -90q45 -30 125 -32q84 0 127 34q45 31 65 93q21 61 27 147
q1 42 1.5 89t0.5 99q0 55 -0.5 103.5t-1.5 91.5q-2 45 -8.5 80.5t-16.5 64.5q-20 62 -65 93q-45 30 -129 30q-78 0 -121 -28q-45 -30 -68 -91q-19 -60 -27.5 -146t-6.5 -198zM670 1153l-372 254q-7 4 -12.5 9.5t-10.5 12.5q-12 12 -14 37q0 27 22 49q23 23 54 23
q29 0 51 -16q10 -11 24 -28t33 -40l250 -301h-25z" />
    <glyph glyph-name="oacute" unicode="&#xf3;" horiz-adv-x="1100" 
d="M98 446q4 220 154 353q142 132 299 133q161 -2 303 -133q143 -131 147 -353q-5 -217 -147 -350q-141 -134 -303 -135q-163 2 -301 137q-148 128 -152 348zM328 446q0 -108 6 -192q4 -86 24 -148q23 -59 68 -90q45 -30 125 -32q84 0 127 34q45 31 65 93q21 61 27 147
q1 42 1.5 89t0.5 99q0 55 -0.5 103.5t-1.5 91.5q-2 45 -8.5 80.5t-16.5 64.5q-20 62 -65 93q-45 30 -129 30q-78 0 -121 -28q-45 -30 -68 -91q-19 -60 -27.5 -146t-6.5 -198zM726 1454q66 85 109 84q35 0 55 -23q21 -23 21 -49q0 -24 -10 -37q-7 -7 -13.5 -12.5t-13.5 -9.5
l-373 -254h-24z" />
    <glyph glyph-name="ocircumflex" unicode="&#xf4;" horiz-adv-x="1100" 
d="M98 446q4 220 154 353q142 132 299 133q161 -2 303 -133q143 -131 147 -353q-5 -217 -147 -350q-141 -134 -303 -135q-163 2 -301 137q-148 128 -152 348zM328 446q0 -108 6 -192q4 -86 24 -148q23 -59 68 -90q45 -30 125 -32q84 0 127 34q45 31 65 93q21 61 27 147
q1 42 1.5 89t0.5 99q0 55 -0.5 103.5t-1.5 91.5q-2 45 -8.5 80.5t-16.5 64.5q-20 62 -65 93q-45 30 -129 30q-78 0 -121 -28q-45 -30 -68 -91q-19 -60 -27.5 -146t-6.5 -198zM496 1501h119l240 -348h-25l-274 221l-275 -221h-24z" />
    <glyph glyph-name="otilde" unicode="&#xf5;" horiz-adv-x="1100" 
d="M98 446q4 220 154 353q142 132 299 133q161 -2 303 -133q143 -131 147 -353q-5 -217 -147 -350q-141 -134 -303 -135q-163 2 -301 137q-148 128 -152 348zM328 446q0 -108 6 -192q4 -86 24 -148q23 -59 68 -90q45 -30 125 -32q84 0 127 34q45 31 65 93q21 61 27 147
q1 42 1.5 89t0.5 99q0 55 -0.5 103.5t-1.5 91.5q-2 45 -8.5 80.5t-16.5 64.5q-20 62 -65 93q-45 30 -129 30q-78 0 -121 -28q-45 -30 -68 -91q-19 -60 -27.5 -146t-6.5 -198zM221 1241q35 130 98 172q63 37 117 35q26 0 53 -6q28 -10 70 -33l45 -23q58 -35 117 -36
q63 0 96 38q33 33 49 66h22q-24 -95 -77 -154q-56 -59 -144 -59q-52 0 -110 31l-70 35q-49 28 -106 30q-99 -2 -138 -96h-22z" />
    <glyph glyph-name="odieresis" unicode="&#xf6;" horiz-adv-x="1100" 
d="M98 446q4 220 154 353q142 132 299 133q161 -2 303 -133q143 -131 147 -353q-5 -217 -147 -350q-141 -134 -303 -135q-163 2 -301 137q-148 128 -152 348zM328 446q0 -108 6 -192q4 -86 24 -148q23 -59 68 -90q45 -30 125 -32q84 0 127 34q45 31 65 93q21 61 27 147
q1 42 1.5 89t0.5 99q0 55 -0.5 103.5t-1.5 91.5q-2 45 -8.5 80.5t-16.5 64.5q-20 62 -65 93q-45 30 -129 30q-78 0 -121 -28q-45 -30 -68 -91q-19 -60 -27.5 -146t-6.5 -198zM367 1462q44 0 76 -29q30 -31 31 -77q0 -45 -29 -74q-32 -33 -78 -33q-45 0 -73 33q-32 29 -33 74
q2 47 33 77q29 29 73 29zM744 1462q44 0 76 -29q28 -28 31 -77q0 -45 -29 -74q-32 -33 -78 -33t-74 33q-32 29 -32 74q0 47 32 77q29 29 74 29z" />
    <glyph glyph-name="divide" unicode="&#xf7;" 
d="M115 473v37h983v-37h-983zM606 57q-51 0 -84 37q-37 33 -37 84q0 54 37 88q33 33 84 33q53 0 88 -33q33 -35 33 -88q0 -51 -33 -84q-34 -37 -88 -37zM606 926q53 0 88 -33q33 -35 33 -88q0 -51 -33 -84q-34 -37 -88 -37q-51 0 -84 37q-37 33 -37 84q0 54 37 88
q33 33 84 33z" />
    <glyph glyph-name="oslash" unicode="&#xf8;" horiz-adv-x="1100" 
d="M719 831q-41 78 -168 78q-78 0 -121 -28q-45 -30 -68 -91q-19 -60 -27.5 -146t-6.5 -198q0 -58 2 -108.5t6 -95.5q6 -85 29 -148zM379 68q40 -84 172 -84q84 0 127 34q45 31 65 93q21 61 27 147q1 42 1.5 89t0.5 99q0 60 -1 111t-3 96q-6 90 -33 150zM334 33
q-101 64 -166 168q-70 106 -70 245q4 220 154 353q142 132 299 133q95 0 190 -53l80 165l25 -12l-80 -168q100 -59 168 -166q65 -109 67 -252q-5 -217 -147 -350q-141 -134 -303 -135q-96 0 -195 57l-82 -170l-24 13z" />
    <glyph glyph-name="ugrave" unicode="&#xf9;" 
d="M201 870h-148v23h352v-621q0 -145 39 -209q37 -63 115 -63q70 0 119 37q45 33 69 84q46 107 43 201v548h-143v23h348v-870h148v-23h-353v172q-4 -17 -10 -33t-16 -33q-20 -35 -45 -63q-27 -29 -70 -45q-45 -18 -108 -21q-93 3 -156 33q-66 28 -111 78q-77 100 -73 285
v497zM730 1153l-372 254q-7 4 -12.5 9.5t-10.5 12.5q-12 12 -14 37q0 27 22 49q23 23 54 23q29 0 51 -16q10 -11 24 -28t33 -40l250 -301h-25z" />
    <glyph glyph-name="uacute" unicode="&#xfa;" 
d="M201 870h-148v23h352v-621q0 -145 39 -209q37 -63 115 -63q70 0 119 37q45 33 69 84q46 107 43 201v548h-143v23h348v-870h148v-23h-353v172q-4 -17 -10 -33t-16 -33q-20 -35 -45 -63q-27 -29 -70 -45q-45 -18 -108 -21q-93 3 -156 33q-66 28 -111 78q-77 100 -73 285
v497zM786 1454q66 85 109 84q35 0 55 -23q21 -23 21 -49q0 -24 -10 -37q-7 -7 -13.5 -12.5t-13.5 -9.5l-373 -254h-24z" />
    <glyph glyph-name="ucircumflex" unicode="&#xfb;" 
d="M201 870h-148v23h352v-621q0 -145 39 -209q37 -63 115 -63q70 0 119 37q45 33 69 84q46 107 43 201v548h-143v23h348v-870h148v-23h-353v172q-4 -17 -10 -33t-16 -33q-20 -35 -45 -63q-27 -29 -70 -45q-45 -18 -108 -21q-93 3 -156 33q-66 28 -111 78q-77 100 -73 285
v497zM556 1501h119l240 -348h-25l-274 221l-275 -221h-24z" />
    <glyph glyph-name="udieresis" unicode="&#xfc;" 
d="M201 870h-148v23h352v-621q0 -145 39 -209q37 -63 115 -63q70 0 119 37q45 33 69 84q46 107 43 201v548h-143v23h348v-870h148v-23h-353v172q-4 -17 -10 -33t-16 -33q-20 -35 -45 -63q-27 -29 -70 -45q-45 -18 -108 -21q-93 3 -156 33q-66 28 -111 78q-77 100 -73 285
v497zM427 1462q44 0 76 -29q30 -31 31 -77q0 -45 -29 -74q-32 -33 -78 -33q-45 0 -73 33q-32 29 -33 74q2 47 33 77q29 29 73 29zM804 1462q44 0 76 -29q28 -28 31 -77q0 -45 -29 -74q-32 -33 -78 -33t-74 33q-32 29 -32 74q0 47 32 77q29 29 74 29z" />
    <glyph glyph-name="yacute" unicode="&#xfd;" horiz-adv-x="948" 
d="M-23 870v23h527v-23h-178l270 -620l223 620h-141v23h280v-23h-114l-359 -999q-53 -152 -96 -240q-43 -89 -80 -129t-67 -51q-33 -12 -66 -12q-61 1 -100 45q-39 39 -39 82q0 30 26 53q25 21 74 21q37 2 62 -11q29 -14 30 -47q0 -15 -8 -37t-8 -39q0 -26 29 -26
q28 2 59 47q31 40 61 104q33 64 58 125q11 31 19.5 55.5t15.5 41.5l41 112l-406 905h-113zM651 1454q66 85 109 84q35 0 55 -23q21 -23 21 -49q0 -24 -10 -37q-7 -7 -13.5 -12.5t-13.5 -9.5l-373 -254h-24z" />
    <glyph glyph-name="thorn" unicode="&#xfe;" horiz-adv-x="1139" 
d="M207 1485h-148v22h353v-696q16 30 65 76q49 43 146 45q149 -2 284 -131q138 -130 142 -346q-5 -212 -136 -342q-130 -133 -286 -136q-103 3 -150 56q-49 46 -65 80v-680h147v-23h-500v23h148v2052zM395 459q-5 -264 45 -350q49 -74 105 -93q52 -16 80 -16q128 0 163 119
q33 115 31 366q1 91 -5.5 165t-20.5 134q-16 60 -60 95q-44 30 -113 30q-83 0 -147 -57q-53 -47 -65 -127q-8 -40 -11 -106t-2 -160z" />
    <glyph glyph-name="ydieresis" unicode="&#xff;" horiz-adv-x="948" 
d="M-23 870v23h527v-23h-178l270 -620l223 620h-141v23h280v-23h-114l-359 -999q-53 -152 -96 -240q-43 -89 -80 -129t-67 -51q-33 -12 -66 -12q-61 1 -100 45q-39 39 -39 82q0 30 26 53q25 21 74 21q37 2 62 -11q29 -14 30 -47q0 -15 -8 -37t-8 -39q0 -26 29 -26
q28 2 59 47q31 40 61 104q33 64 58 125q11 31 19.5 55.5t15.5 41.5l41 112l-406 905h-113zM309 1462q44 0 76 -29q30 -31 31 -77q0 -45 -29 -74q-32 -33 -78 -33q-45 0 -73 33q-32 29 -33 74q2 47 33 77q29 29 73 29zM686 1462q44 0 76 -29q28 -28 31 -77q0 -45 -29 -74
q-32 -33 -78 -33t-74 33q-32 29 -32 74q0 47 32 77q29 29 74 29z" />
    <glyph glyph-name="dotlessi" unicode="&#x131;" horiz-adv-x="645" 
d="M227 870h-147v23h352v-870h148v-23h-500v23h147v847z" />
    <glyph glyph-name="Lslash" unicode="&#x141;" horiz-adv-x="1366" 
d="M270 1436h-184v22h625v-22h-187v-598l312 186v-35l-312 -184v-782h142q209 0 370 116q156 115 201 326h16v-465h-1167v23h184v659l-184 -111v33l184 113v719z" />
    <glyph glyph-name="lslash" unicode="&#x142;" horiz-adv-x="645" 
d="M80 668l147 90v727h-147v22h352v-649l148 90v-37l-148 -90v-798h148v-23h-500v23h147v698l-147 -88v35z" />
    <glyph glyph-name="OE" unicode="&#x152;" horiz-adv-x="2048" 
d="M1304 23h193q158 -3 268 86q111 86 180 301h17v-410h-832q-31 0 -62.5 -1t-64.5 -3q-32 -2 -63.5 -3t-63.5 -1q-341 6 -550 233q-213 219 -215 516q-2 250 182 480q182 237 583 245q32 0 63.5 -1t63.5 -3q33 -2 64.5 -3t62.5 -1h777v-352h-17q-20 64 -51 123
q-29 59 -78 104q-25 23 -54.5 42.5t-64.5 33.5q-71 27 -176 27h-162v-672q52 -1 101 6q49 4 92 31q22 13 41 34t35 52q14 28 25 68t18 94h16v-598h-16q-5 55 -15 97.5t-26 71.5q-33 60 -80 87q-43 25 -94 30q-25 2 -49 3t-48 1v-718zM1051 1417q-7 4 -14.5 7.5t-16.5 6.5
q-11 2 -23 4t-24 3q-56 6 -105 6q-149 -2 -239 -66q-95 -65 -144 -172q-47 -110 -65 -231q-11 -63 -15.5 -124t-3.5 -124q0 -61 4.5 -122t12.5 -124q13 -125 63 -231q49 -106 146 -168q95 -68 256 -68q66 0 108 11q42 6 60 16v1376z" />
    <glyph glyph-name="oe" unicode="&#x153;" horiz-adv-x="1669" 
d="M1218 -39q-218 2 -354 166q-136 -164 -321 -166q-163 2 -301 137q-148 128 -152 348q4 220 152 353q140 131 301 133q192 -2 333 -180q132 176 328 180q137 0 252 -109q116 -110 123 -325h-584v-74q0 -42 1 -82.5t3 -79.5q2 -40 8.5 -75t16.5 -66q23 -63 68 -98
q45 -38 126 -39q75 0 175 41q97 43 159 161l21 -8q-46 -105 -142 -160q-98 -56 -213 -57zM766 446q0 55 -0.5 103.5t-1.5 91.5q-2 45 -8.5 80.5t-16.5 64.5q-20 62 -65 93q-47 30 -133 30q-78 0 -121 -28q-45 -30 -68 -91q-20 -62 -26 -145q-4 -43 -5.5 -92.5t-1.5 -106.5
q0 -54 1.5 -102t5.5 -90q6 -83 26 -148q23 -59 68 -90q45 -30 121 -32q87 0 133 34q45 31 65 93q10 30 16.5 66.5t8.5 80.5q1 42 1.5 89t0.5 99zM1384 520q2 221 -34 307q-39 83 -154 82q-68 0 -107 -24q-40 -28 -61 -78q-34 -103 -33 -287h389z" />
    <glyph glyph-name="Scaron" unicode="&#x160;" 
d="M125 502h16q39 -230 168 -369q131 -146 295 -147q134 0 232 69q101 68 102 209q1 120 -88 193q-46 34 -123 75.5t-188 92.5q-45 22 -83.5 42t-72.5 40q-69 37 -115 81q-96 84 -96 252q2 184 121 318q116 133 295 137q55 0 102 -12q23 -7 47.5 -15.5t50.5 -19.5
q50 -21 72 -19q39 0 53 23q14 20 15 35h16v-408h-16q-8 28 -17.5 58.5t-21.5 62.5q-26 66 -66 129q-38 62 -98 104q-59 39 -145 39q-45 0 -84 -10q-48 -12 -88 -43q-41 -26 -68 -74q-29 -50 -29 -118q0 -140 107 -217q104 -80 305 -170q39 -17 75 -33t68 -33q62 -32 115 -80
q50 -45 78 -106q28 -59 28 -150q-4 -190 -145 -329q-140 -141 -338 -146q-37 0 -88 6q-26 2 -59.5 9.5t-73.5 21.5q-115 41 -158 41q-45 -2 -61 -23q-21 -20 -23 -34h-16v518zM887 1904h25l-240 -348h-119l-239 348h24l275 -221z" />
    <glyph glyph-name="scaron" unicode="&#x161;" horiz-adv-x="797" 
d="M59 297h17q9 -36 19.5 -67.5t21.5 -59.5q22 -51 73 -102q84 -84 201 -84q112 2 166 53q51 49 51 115q0 67 -55 110q-60 43 -186 98q-25 13 -48 25t-45 25q-22 11 -42 25.5t-37 31.5q-35 33 -54 82q-22 43 -22 112q1 133 88 203q83 68 186 68q38 0 78 -8q16 -5 29 -10.5
t24 -10.5q55 -24 72 -22q27 0 33 12h16v-215h-16q-7 37 -16.5 66t-20.5 51q-26 45 -60 69q-68 46 -135 45q-42 0 -102 -26q-62 -29 -64 -115q0 -68 54 -119q14 -13 32 -26t41 -27t51 -30.5t62 -35.5q135 -63 203 -116q63 -56 63 -150q-2 -123 -102 -211q-99 -90 -252 -92
q-84 2 -154 33q-35 14 -62 22t-46 9q-32 0 -45 -25h-17v297zM674 1501h25l-240 -348h-119l-239 348h24l275 -221z" />
    <glyph glyph-name="Ydieresis" unicode="&#x178;" horiz-adv-x="1366" 
d="M414 23h184v573l-467 840h-158v22h664v-22h-207l399 -729l359 729h-170v22h356v-22h-160l-362 -742v-671h186v-23h-624v23zM571 1865q44 0 76 -29q30 -31 31 -77q0 -45 -29 -74q-32 -33 -78 -33q-45 0 -73 33q-32 29 -33 74q2 47 33 77q29 29 73 29zM948 1865
q44 0 76 -29q28 -28 31 -77q0 -45 -29 -74q-32 -33 -78 -33t-74 33q-32 29 -32 74q0 47 32 77q29 29 74 29z" />
    <glyph glyph-name="florin" unicode="&#x192;" horiz-adv-x="1063" 
d="M115 709h278q6 51 16.5 109.5t24.5 127.5q27 135 84 262q80 158 174 215q90 54 172 51q90 0 156 -51q66 -52 67 -139q-4 -94 -92 -90q-15 -2 -45 10q-38 10 -39 60q0 31 21 57q14 23 16 55q-2 43 -33 62q-34 14 -65 14q-57 0 -96 -33q-39 -34 -64 -86q-22 -54 -36 -102
t-19 -90q-38 -269 -51 -432h268v-23h-270q-13 -121 -30 -249.5t-40 -268.5q-46 -279 -119 -487q-29 -95 -92 -179q-33 -42 -74 -65q-45 -26 -106 -27q-80 2 -137 45q-62 43 -64 121q2 80 88 82q45 0 62 -18q14 -23 14 -37q0 -25 -14 -51q-17 -29 -17 -60q0 -14 17 -37
q13 -20 59 -22q112 1 150 123q36 116 45 301q17 214 33.5 419t33.5 410h-276v23z" />
    <glyph glyph-name="circumflex" unicode="&#x2c6;" horiz-adv-x="569" 
d="M225 1501h119l240 -348h-25l-274 221l-275 -221h-24z" />
    <glyph glyph-name="caron" unicode="&#x2c7;" horiz-adv-x="569" 
d="M559 1501h25l-240 -348h-119l-239 348h24l275 -221z" />
    <glyph glyph-name="breve" unicode="&#x2d8;" horiz-adv-x="569" 
d="M25 1477q6 -31 18 -56q6 -12 12 -23t13 -22q14 -20 30 -36.5t35 -28.5q76 -43 152 -41q14 0 31.5 2t39.5 6q20 4 39 11t39 18q39 20 70 63q28 39 41 107h22q0 -20 -2 -45t-6 -54q-8 -57 -41 -108q-52 -72 -115 -95q-59 -22 -118 -22q-57 -2 -117 25q-63 22 -117 94
q-31 49 -39 106q-4 29 -6.5 54t-3.5 45h23z" />
    <glyph glyph-name="dotaccent" unicode="&#x2d9;" horiz-adv-x="569" 
d="M285 1462q43 0 75 -29q30 -31 31 -77q-2 -45 -31 -74q-30 -33 -75 -33q-46 0 -74 33q-33 28 -33 74q0 47 33 77q29 29 74 29z" />
    <glyph glyph-name="ring" unicode="&#x2da;" horiz-adv-x="569" 
d="M88 1360q2 88 68 137q65 47 129 47q69 0 131 -47q63 -49 65 -137q-2 -86 -63 -135q-61 -52 -133 -52q-81 0 -136 54q-59 49 -61 133zM387 1362q-2 101 -31 133q-28 28 -71 27q-15 0 -37 -5q-18 -4 -33 -22q-16 -16 -23 -47q-10 -30 -10 -86q-4 -166 103 -166
q106 0 102 166z" />
    <glyph glyph-name="ogonek" unicode="&#x2db;" horiz-adv-x="569" 
d="M510 0q-81 -55 -152 -123q-75 -68 -77 -135q0 -46 34 -74q33 -29 82 -30q37 2 62 12q21 10 37 20l14 -24q-41 -31 -82 -47q-47 -20 -111 -21q-86 1 -135 45q-51 43 -51 96q0 79 84 138q42 29 104 64.5t150 78.5h41z" />
    <glyph glyph-name="tilde" unicode="&#x2dc;" horiz-adv-x="569" 
d="M-49 1241q35 130 98 172q63 37 117 35q26 0 53 -6q28 -10 70 -33l45 -23q58 -35 117 -36q63 0 96 38q33 33 49 66h22q-24 -95 -77 -154q-56 -59 -144 -59q-52 0 -110 31l-70 35q-49 28 -106 30q-99 -2 -138 -96h-22z" />
    <glyph glyph-name="endash" unicode="&#x2013;" horiz-adv-x="1024" 
d="M1024 459v-23h-1024v23h1024z" />
    <glyph glyph-name="emdash" unicode="&#x2014;" horiz-adv-x="2048" 
d="M1782 459v-23h-1516v23h1516z" />
    <glyph glyph-name="quoteleft" unicode="&#x2018;" horiz-adv-x="530" 
d="M369 1501q-64 -52 -101 -92q-20 -23 -34.5 -42t-24.5 -36q-37 -67 -35 -117q0 -38 10 -57q5 -10 11 -19.5t12 -19.5q8 8 17 16t20 15q20 14 53 14q51 0 88 -31q35 -31 37 -92q-2 -63 -45 -94q-45 -33 -96 -33q-68 0 -117 54q-53 51 -53 149q0 83 28 143q27 66 64 115
q40 49 80 86q20 19 36.5 34t30.5 28z" />
    <glyph glyph-name="quoteright" unicode="&#x2019;" horiz-adv-x="530" 
d="M162 934q125 104 164 174q31 67 30 113q0 41 -10 61q-10 18 -22 35q-18 -19 -33 -29q-19 -16 -58 -16q-51 0 -86 35q-38 32 -38 88q2 65 49 96q43 31 92 31q70 0 119 -52q50 -53 51 -151q0 -78 -25 -137q-24 -65 -63 -117q-42 -52 -80 -89.5t-72 -62.5z" />
    <glyph glyph-name="quotesinglbase" unicode="&#x201a;" horiz-adv-x="530" 
d="M162 -360q125 104 164 174q31 67 30 112q0 42 -10 62q-10 18 -22 35q-18 -19 -33 -29q-23 -17 -58 -17q-51 0 -86 35q-38 33 -38 88q2 66 49 97q43 30 92 30q69 0 119 -51q50 -53 51 -151q0 -79 -25 -138q-23 -62 -63 -116q-42 -52 -80 -89.5t-72 -62.5z" />
    <glyph glyph-name="quotedblleft" unicode="&#x201c;" horiz-adv-x="909" 
d="M747 1501q-32 -26 -56.5 -49t-43.5 -43q-20 -23 -34.5 -42t-24.5 -36q-37 -67 -35 -117q0 -38 10 -57q5 -10 10.5 -19.5t12.5 -19.5q8 8 17 16t20 15q20 14 53 14q51 0 88 -31q35 -31 37 -92q-2 -63 -45 -94q-45 -33 -97 -33q-67 0 -116 54q-54 51 -54 149q0 77 29 143
q27 66 64 115q19 25 39 46t40 40t37 34t31 28zM369 1501q-64 -52 -101 -92q-20 -23 -34.5 -42t-24.5 -36q-37 -67 -35 -117q0 -38 10 -57q5 -10 11 -19.5t12 -19.5q8 8 17 16t20 15q20 14 53 14q51 0 88 -31q35 -31 37 -92q-2 -63 -45 -94q-45 -33 -96 -33q-68 0 -117 54
q-53 51 -53 149q0 83 28 143q27 66 64 115q40 49 80 86q20 19 36.5 34t30.5 28z" />
    <glyph glyph-name="quotedblright" unicode="&#x201d;" horiz-adv-x="909" 
d="M162 934q125 104 164 174q31 67 30 113q0 41 -10 61q-10 18 -22 35q-18 -19 -33 -29q-19 -16 -58 -16q-51 0 -86 35q-38 32 -38 88q2 65 49 96q43 31 92 31q70 0 119 -52q50 -53 51 -151q0 -78 -25 -137q-24 -65 -63 -117q-42 -52 -80 -89.5t-72 -62.5zM541 934
q125 104 163 174q33 65 31 113q0 41 -10 61q-11 20 -23 35q-14 -17 -32 -29q-19 -16 -58 -16q-51 0 -86 35q-39 31 -39 88q2 65 50 96q43 31 92 31q69 0 118 -52q50 -53 52 -151q0 -78 -25 -137q-24 -65 -63 -117q-42 -52 -80 -89.5t-72 -62.5z" />
    <glyph glyph-name="quotedblbase" unicode="&#x201e;" horiz-adv-x="909" 
d="M162 -360q125 104 164 174q31 67 30 112q0 42 -10 62q-10 18 -22 35q-18 -19 -33 -29q-23 -17 -58 -17q-51 0 -86 35q-38 33 -38 88q2 66 49 97q43 30 92 30q69 0 119 -51q50 -53 51 -151q0 -79 -25 -138q-23 -62 -63 -116q-42 -52 -80 -89.5t-72 -62.5zM541 -360
q125 104 163 174q33 67 31 112q0 42 -10 62q-11 20 -23 35q-14 -17 -32 -29q-23 -17 -58 -17q-51 0 -86 35q-39 33 -39 88q2 66 50 97q43 30 92 30q68 0 118 -51q50 -53 52 -151q0 -79 -25 -138q-23 -62 -63 -116q-42 -52 -80 -89.5t-72 -62.5z" />
    <glyph glyph-name="dagger" unicode="&#x2020;" horiz-adv-x="1063" 
d="M518 -571v579q0 62 -6 139q-8 78 -27 136q-22 79 -53 116q-30 33 -51 43q79 55 108 168q29 114 29 314q-20 0 -50.5 -1.5t-72.5 -5.5q-40 -4 -77 -14t-72 -27q-76 -38 -88 -34q-41 0 -68 30q-31 27 -31 68q0 44 31 72q29 26 66 26q19 0 32 -4q8 -4 23 -12t35 -19
q35 -16 72 -25t77 -13q42 -5 72.5 -7.5t50.5 -3.5q0 55 -3.5 106.5t-10.5 100.5q-15 100 -51 174q-23 41 -21 64q0 41 31 69q25 27 69 27q43 0 72 -27q27 -29 27 -69q0 -24 -21 -64q-17 -37 -29.5 -80t-19.5 -94q-7 -49 -11 -100.5t-5 -106.5q23 1 54 3.5t71 7.5
q38 4 74.5 13t72.5 25q70 37 90 35q39 0 68 -26q28 -28 28 -72q-4 -94 -98 -98q-12 -4 -88 34q-36 17 -72.5 27t-74.5 14q-40 4 -71 5.5t-54 1.5q5 -203 30 -314q27 -112 107 -168q-4 -3 -9 -6.5t-12 -7.5q-6 -5 -13 -12t-15 -17q-31 -37 -56 -116q-8 -28 -13.5 -62
t-8.5 -74q-5 -38 -7.5 -73t-2.5 -66v-579h-27z" />
    <glyph glyph-name="daggerdbl" unicode="&#x2021;" horiz-adv-x="1063" 
d="M381 459q79 43 108 153q8 29 14 62t9 71q6 78 6 179q-20 0 -50.5 -1.5t-72.5 -5.5q-40 -4 -77 -14t-72 -27q-76 -38 -88 -34q-41 0 -68 30q-31 27 -31 68q0 44 31 72q29 26 66 26q19 0 32 -4q8 -4 23 -12t35 -19q35 -16 72 -25t77 -13q42 -5 72.5 -7.5t50.5 -3.5
q0 55 -3.5 106.5t-10.5 100.5q-15 100 -51 174q-23 41 -21 64q0 41 31 69q25 27 69 27q43 0 72 -27q27 -29 27 -69q0 -24 -21 -64q-17 -37 -29.5 -80t-19.5 -94q-7 -49 -11 -100.5t-5 -106.5q23 1 54 3.5t71 7.5q38 4 74.5 13t72.5 25q70 37 90 35q39 0 68 -26
q28 -28 28 -72q-4 -94 -98 -98q-12 -4 -88 34q-36 17 -72.5 27t-74.5 14q-40 4 -71 5.5t-54 1.5q2 -51 4.5 -95.5t5.5 -83.5q3 -38 8 -71t12 -62q27 -109 107 -153q-80 -44 -107 -152q-7 -28 -12 -60.5t-8 -70.5q-3 -39 -5.5 -84.5t-4.5 -97.5q23 0 54 2t71 6q76 7 147 39
q73 40 88 35q94 -5 98 -99q0 -40 -28 -67q-29 -29 -68 -31q-20 -2 -90 35q-35 16 -71.5 27t-75.5 16q-80 8 -125 6q1 -52 5 -103t11 -102q7 -49 19.5 -93t29.5 -83q21 -41 21 -63q0 -39 -27 -66q-29 -29 -72 -30q-44 1 -69 30q-31 27 -31 66q-2 22 21 63q36 78 51 176
q7 51 10.5 102t3.5 103q-41 1 -123 -6q-42 -5 -78.5 -16t-70.5 -27q-20 -10 -35 -16.5t-23 -10.5q-19 -8 -32 -8q-37 2 -66 31q-31 27 -31 67q0 44 31 72q27 27 68 27q15 5 88 -35q69 -31 149 -39q42 -4 72.5 -6t50.5 -2q0 104 -6 182q-3 38 -9 70.5t-14 60.5q-7 26 -16 50
t-22 44q-27 37 -70 58z" />
    <glyph glyph-name="bullet" unicode="&#x2022;" horiz-adv-x="1024" 
d="M147 729q2 155 109 258q101 105 256 107q157 -2 258 -107q104 -103 106 -258q-1 -153 -106 -256q-102 -107 -258 -108q-154 1 -256 108q-108 103 -109 256z" />
    <glyph glyph-name="ellipsis" unicode="&#x2026;" horiz-adv-x="2048" 
d="M221 98q0 54 37 88q33 33 84 33q53 0 88 -33q33 -35 33 -88q0 -51 -33 -84q-34 -34 -88 -37q-53 3 -84 37q-37 33 -37 84zM903 98q0 54 37 88q33 33 84 33q53 0 88 -33q33 -35 33 -88q0 -51 -33 -84q-34 -34 -88 -37q-53 3 -84 37q-37 33 -37 84zM1585 98q0 54 37 88
q33 33 84 33q53 0 88 -33q33 -35 33 -88q0 -51 -33 -84q-34 -34 -88 -37q-53 3 -84 37q-37 33 -37 84z" />
    <glyph glyph-name="perthousand" unicode="&#x2030;" horiz-adv-x="2011" 
d="M1014 1474l37 -16l-770 -1489l-37 17zM1472 268q-2 -140 33 -207q34 -69 127 -69q96 0 131 69q29 70 29 207q0 27 -0.5 52.5t-1.5 50.5t-6 47.5t-13 42.5q-14 41 -47 61q-32 23 -92 23q-54 0 -86 -23q-33 -20 -49 -61q-14 -41 -18 -90q-1 -13 -1.5 -25t-0.5 -24
q-2 -14 -3.5 -27.5t-1.5 -26.5zM219 1175q-1 -139 33 -206q34 -70 127 -70q97 0 131 70q29 70 29 206q0 27 -0.5 52.5t-1.5 50.5q-3 52 -19 90q-14 41 -47 61q-35 23 -92 23q-54 0 -86 -23q-33 -20 -49 -61q-7 -20 -12 -42t-7 -48q-1 -13 -1.5 -25t-0.5 -24q-4 -20 -4 -54z
M1343 268q1 136 93 219q84 78 196 80q117 -2 201 -80q86 -82 88 -219q-2 -131 -88 -213q-84 -84 -201 -86q-115 2 -199 86q-89 82 -90 213zM90 1175q2 138 92 220q85 78 197 79q115 -2 201 -79q86 -82 88 -220q-2 -131 -88 -213q-86 -83 -201 -86q-113 3 -199 86
q-89 82 -90 213zM637 268q2 137 92 219q84 78 197 80q116 -2 200 -80q86 -82 88 -219q-2 -131 -88 -213q-85 -85 -200 -86q-115 2 -199 86q-89 82 -90 213zM766 268q-2 -140 33 -207q34 -69 127 -69q96 0 131 69q28 65 28 207q0 27 -0.5 52.5t-1.5 50.5q-2 49 -18 90
q-14 41 -47 61q-35 23 -92 23q-54 0 -86 -23q-33 -20 -50 -61q-14 -41 -18 -90q-1 -13 -1.5 -25t-0.5 -24q-4 -20 -4 -54z" />
    <glyph glyph-name="guilsinglleft" unicode="&#x2039;" horiz-adv-x="606" 
d="M463 160q-124 18 -221 92q-97 70 -99 199q2 129 99 202q93 72 221 86l6 -22q-17 -2 -45 -15q-16 -7 -31 -18t-31 -25q-27 -25 -49 -77q-24 -53 -24 -131t24 -127q21 -52 49 -80q30 -27 62 -41q28 -15 45 -21z" />
    <glyph glyph-name="guilsinglright" unicode="&#x203a;" horiz-adv-x="606" 
d="M137 182q21 6 51 21q29 14 58 41q33 28 51 80q20 52 20 127q0 76 -20 131q-18 51 -51 77q-15 14 -29.5 25t-28.5 18q-30 13 -51 15l6 22q129 -14 222 -86q96 -73 98 -202q-2 -129 -98 -199q-95 -74 -222 -92z" />
    <glyph glyph-name="trademark" unicode="&#x2122;" horiz-adv-x="2009" 
d="M434 682v754h-61q-19 0 -43 -3q-29 -2 -56 -20q-13 -8 -27 -21.5t-28 -33.5q-13 -19 -25.5 -46.5t-23.5 -64.5h-18v211h684v-211h-19q-7 35 -18 64q-7 13 -13 24t-12 21q-27 39 -55 55q-29 18 -53 22q-29 3 -52 3h-61v-754h117v-23h-351v23h115zM1014 682v754h-115v22
h250l203 -592l204 592h244v-22h-115v-754h115v-23h-350v23h117v727l-267 -760l-262 754v-721h117v-23h-256v23h115z" />
    <glyph glyph-name="minus" unicode="&#x2212;" 
d="M115 473v37h983v-37h-983z" />
    <glyph glyph-name="fraction" unicode="&#x2215;" horiz-adv-x="152" 
d="M442 1474l37 -16l-770 -1489l-37 17z" />
    <glyph glyph-name="periodcentered" unicode="&#x2219;" horiz-adv-x="530" 
d="M143 557q0 54 37 88q33 33 84 33q53 0 88 -33q33 -35 33 -88q0 -51 -33 -84q-34 -37 -88 -37q-51 0 -84 37q-37 33 -37 84z" />
    <glyph glyph-name="uniF001" unicode="&#xf001;" 
d="M233 870h-147v23h147q0 64 7.5 127t21.5 127q27 125 103 225q22 28 44.5 49t45.5 37q47 32 86 45q82 21 133 19q87 0 141 -19q55 -22 92 -53q68 -68 68 -131q0 -37 -29 -51q-31 -19 -78 -19q-39 0 -71 17q-35 14 -35 57v96q-2 37 -27 60q-26 20 -78 20q-102 -4 -139 -61
q-39 -56 -43 -86q-11 -48 -18 -103.5t-11 -122.5q-4 -69 -6 -126.5t-2 -106.5h156v-23h-156v-847h156v-23h-508v23h147v847zM805 870h-148v23h353v-870h147v-23h-500v23h148v847z" />
    <glyph glyph-name="uniF002" unicode="&#xf002;" 
d="M233 870h-147v23h147q0 69 4.5 129t12.5 117q16 110 76 202q49 76 120 127q70 52 168 54q74 0 121 -21q41 -17 70 -41v47h205v-1484h147v-23h-500v23h148v1255q-8 0 -18 0.5t-21 1.5t-21.5 3t-21.5 5q-47 10 -49 57q0 11 8 48q6 30 6 43q-2 62 -80 63q-110 -2 -141 -129
q-16 -64 -23 -144t-6 -177v-156h156v-23h-156v-847h156v-23h-508v23h147v847z" />
    <glyph glyph-name="NULL" horiz-adv-x="0" 
 />
    </font>
</defs>
</svg>
